<?xml version="1.0" standalone="no"?>
<!DOCTYPE svg PUBLIC "-//W3C//DTD SVG 1.1//EN" "http://www.w3.org/Graphics/SVG/1.1/DTD/svg11.dtd">
<svg xmlns="http://www.w3.org/2000/svg">
<defs >
<font id="Cardo" horiz-adv-x="1306" ><font-face
    font-family="Cardo"
    units-per-em="2048"
    panose-1="2 2 8 4 8 0 0 2 0 3"
    ascent="2028"
    descent="-745"
    alphabetic="0" />
<glyph unicode=" " glyph-name="space" horiz-adv-x="550" />
<glyph unicode="!" glyph-name="exclam" horiz-adv-x="544" d="M328 461Q326 433 312 416T272 398Q246 398 232 415T215 461L141 1424V1477Q141 1499 152 1508T182 1517Q187 1517 194 1517T212 1518Q225 1519 242 1519T272 1519Q289 1519 310 1519T349 1517Q361
1517 377 1511T402 1482V1424L328 461ZM130 103Q130 132 141 158T172 203T217 234T272 245Q302 245 328 234T373 202T403 156T414 102Q414 73 403 48T373 3T327 -28T272 -39Q241 -39 215 -28T170 2T141 47T130 103Z" />
<glyph unicode="&quot;" glyph-name="quotedbl" horiz-adv-x="930" d="M204 776Q195 852 182 935T157 1094T137 1234T128 1333Q128 1354 140 1373T172 1407T217 1430T266 1439Q293 1439 318 1431T362 1407T394 1373T406 1333Q406 1296 399 1233T380 1094T355 934T330
775L204 776ZM600 776Q591 852 578 935T553 1094T533 1234T524 1333Q524 1354 536 1373T568 1407T613 1430T662 1439Q689 1439 714 1431T758 1407T790 1373T802 1333Q802 1296 795 1233T776 1094T751 934T726 775L600 776Z" />
<glyph unicode="#" glyph-name="numbersign" horiz-adv-x="1238" d="M139 1105H409Q433 1220 459 1341T510 1578H679L578 1105H788Q812 1220 838 1341T889 1578H1058L957 1105H1230L1192 944H922Q913 902 906 864T891 789T876 714T859 634H1135L1098 473H824Q798
348 771 219T718 -35H543L651 473H445Q419 348 392 219T339 -35H164L272 473H2L43 634H307Q316 676 324 714T341 789T357 864T375 944H95L139 1105ZM480 634H686Q695 675 703 713T719 788T735 864T752 944H543L480 634Z" />
<glyph unicode="$" glyph-name="dollar" horiz-adv-x="1049" d="M656 1422V-219H586V1422H656ZM563 529Q555 533 548 536T532 545Q492 567 446 593T354 651T266 717T191 793T140 876T120 968Q120 1016 137 1062T188 1149T269 1219T378 1266L434 1277Q458 1280
489 1280Q512 1280 536 1279T585 1273L641 1263Q689 1252 738 1236T826 1195T891 1138T917 1064Q917 1046 909 1031T886 1005T853 987T816 981Q793 981 775 989T741 1010T713 1041T687 1077Q661 1115 632 1148T570 1189Q550 1195 531 1197T488 1200Q483 1200 477
1200T461 1198T435 1194T395 1186Q367 1177 350 1160T324 1123T313 1081T310 1040Q310 995 331 958T387 887T464 826T548 773Q582 753 612 735T656 706Q662 702 667 699T675 695Q731 665 783 627T876 543T940 447T964 341Q964 267 940 208T872 104T769 30T640 -11L584
-20Q561 -23 538 -25T488 -27Q456 -27 434 -24L378 -15Q325 -3 275 20T186 75T124 146T100 230Q100 272 126 297T197 323Q217 323 232 316T258 295T279 263T296 225Q304 205 313 184T335 143T364 106T402 78L397 79Q410 74 423 69T450 60H449Q481 50 519 49Q530
49 543 50T570 53Q584 57 597 60T624 67H621Q686 91 724 146T763 279Q763 313 751 343T714 404T651 464T559 530L563 529ZM465 1422V-219H395V1422H465Z" />
<glyph unicode="%" glyph-name="percent" horiz-adv-x="1812" d="M1411 -24Q1343 -24 1291 7T1204 93T1151 226T1133 397Q1133 471 1151 546T1204 682T1291 781T1411 820Q1480 820 1531 782T1615 683T1666 547T1683 397Q1683 304 1666 227T1615 94T1530 7T1411
-24ZM1274 397Q1274 326 1278 262T1297 150T1339 72T1411 43Q1457 43 1483 72T1522 151T1538 264T1541 398Q1541 436 1539 477T1532 557T1518 633T1494 695T1460 738T1412 754Q1367 754 1340 720T1298 632T1279 516T1274 397ZM1371 1480H1561L460 -55H271L1371
1480ZM424 608Q356 608 304 639T217 725T164 858T146 1029Q146 1103 164 1178T217 1314T304 1413T424 1452Q493 1452 544 1414T628 1315T679 1179T696 1029Q696 936 679 859T628 726T543 639T424 608ZM287 1029Q287 958 291 894T310 782T352 704T424 675Q470 675
496 704T535 783T551 896T554 1030Q554 1068 552 1109T545 1189T531 1265T507 1327T473 1370T425 1386Q380 1386 353 1352T311 1264T292 1148T287 1029Z" />
<glyph unicode="&amp;" glyph-name="ampersand" horiz-adv-x="1592" d="M1183 174Q1204 138 1230 111T1290 83Q1300 83 1320 89T1361 104T1403 119T1434 126Q1448 126 1456 121T1469 110T1474 99T1475 91Q1475 87 1472 79T1453 59Q1397 23 1333 -4T1192 -31Q1144
-31 1108 -16T1044 25T992 82T946 149Q936 163 927 178T906 208Q858 166 802 124T683 49T553 -6T414 -27Q331 -27 260 8T136 100T53 229T23 377Q23 453 51 514T130 625T249 716T397 790Q363 824 336 857T289 924T260 995T250 1076Q250 1142 279 1191T357 1274T466
1324T590 1341Q645 1341 700 1323T799 1273T870 1194T897 1090Q897 1044 878 1005T829 932T761 871T685 821Q681 818 680 817T678 813Q678 808 684 804Q688 801 707 784T763 730T856 633T989 484L1204 809Q1213 823 1218 835T1223 865Q1223 890 1211 897T1186 906Q1172
909 1159 911T1136 918T1120 930T1114 949Q1114 953 1114 958T1119 969T1133 978T1159 982H1550Q1561 965 1563 956T1565 945Q1565 923 1553 916T1520 907Q1497 904 1474 902T1428 893T1387 875T1353 840L1063 380L1183 174ZM510 122Q554 122 598 139T683 180T764
233T836 286Q847 294 847 301Q847 304 845 308Q773 436 683 537T487 726Q482 724 470 717T450 705Q411 682 379 648T323 573T286 484T273 388Q273 337 291 289T342 204T418 145T510 122ZM467 1115Q467 1080 476 1046T502 982T542 927T592 882Q616 891 635 914T667
965T687 1024T694 1080Q694 1116 688 1147T667 1202T629 1238T572 1251Q521 1251 494 1212T467 1115Z" />
<glyph unicode="&apos;" glyph-name="quotesingle" horiz-adv-x="534" d="M204 776Q195 852 182 935T157 1094T137 1234T128 1333Q128 1354 140 1373T172 1407T217 1430T266 1439Q293 1439 318 1431T362 1407T394 1373T406 1333Q406 1296 399 1233T380 1094T355
934T330 775L204 776Z" />
<glyph unicode="(" glyph-name="parenleft" horiz-adv-x="695" d="M171 608Q171 755 195 901T268 1187T388 1456T557 1698Q566 1709 572 1713T595 1718Q606 1718 619 1707T643 1681T663 1652T671 1630Q671 1615 660 1591Q516 1371 438 1128T359 603Q359 330 437
89T660 -373Q671 -393 671 -412Q671 -419 663 -433T644 -463T619 -489T595 -500Q579 -500 573 -496T556 -479Q462 -366 390 -238T270 30T196 315T171 608Z" />
<glyph unicode=")" glyph-name="parenright" horiz-adv-x="695" d="M524 608Q524 462 499 317T424 32T302 -237T137 -480Q129 -490 122 -495T100 -500Q89 -500 76 -489T52 -463T32 -434T24 -412Q24 -402 26 -392T34 -373Q179 -152 257 89T335 603Q335 744 315
874T257 1127T163 1365T34 1591Q28 1601 26 1610T24 1630Q24 1637 32 1651T51 1681T76 1707T100 1718Q115 1718 121 1714T138 1697Q235 1586 307 1457T428 1189T500 902T524 608Z" />
<glyph unicode="*" glyph-name="asterisk" horiz-adv-x="811" d="M743 1411L771 1319L547 1203L658 978L582 922L404 1101L224 926L144 979L259 1205L40 1321L62 1414L313 1376Q324 1436 335 1501T356 1624H452L492 1375L743 1411Z" />
<glyph unicode="+" glyph-name="plus" horiz-adv-x="1049" d="M68 719H433V1098H620V719H980V532H620V157H433V532H68V719Z" />
<glyph unicode="," glyph-name="comma" horiz-adv-x="600" d="M209 -302Q189 -302 184 -289T179 -265Q180 -252 187 -241T206 -221T228 -204T249 -187Q263 -173 278 -156T305 -120T325 -81T333 -41Q333 -33 331 -24T311 -15Q279 -15 246 -5T184 25T139 74T121
143Q121 181 133 210T167 260T218 290T284 301Q346 301 384 278T444 221T472 151T479 87Q479 33 462 -19T418 -117T354 -202T280 -269Q265 -280 246 -291T209 -302Z" />
<glyph unicode="-" glyph-name="hyphen" horiz-adv-x="973" d="M888 608V411H85V608H888Z" />
<glyph unicode="." glyph-name="period" horiz-adv-x="594" d="M130 130Q130 164 143 194T179 248T232 284T297 297Q331 297 361 284T415 248T451 195T464 130Q464 95 451 65T415 12T362 -24T297 -37Q262 -37 232 -24T179 12T143 65T130 130Z" />
<glyph unicode="/" glyph-name="slash" horiz-adv-x="724" d="M529 1452H719L194 -27H5L529 1452Z" />
<glyph unicode="0" glyph-name="zero" horiz-adv-x="1049" d="M531 -26Q417 -26 330 25T185 169T96 391T66 675Q66 757 79 841T119 1004T184 1151T275 1270T391 1350T531 1380Q607 1380 670 1351T784 1271T871 1152T933 1005T970 842T983 674Q983 519 955 390T871
169T730 25T531 -26ZM302 674Q302 596 305 520T317 374T341 245T382 143T444 76T531 51Q581 51 617 76T677 144T715 248T736 377T745 523T747 676Q747 739 744 810T732 951T708 1084T669 1196T611 1274T532 1303Q482 1303 445 1274T383 1196T341 1083T317 949T305
808T302 674Z" />
<glyph unicode="1" glyph-name="one" horiz-adv-x="1049" d="M247 0Q216 0 208 7T200 23V76Q200 84 207 91T244 99Q265 99 294 99T353 101T405 107T438 120V1131Q405 1109 382 1094T337 1068T295 1045T245 1019Q240 1016 227 1011T206 1005Q197 1005 192 1015T171
1049Q170 1051 170 1054Q170 1058 175 1061T193 1074Q223 1093 262 1125T344 1197T433 1283T519 1379H595Q614 1379 625 1378T643 1373T650 1363T652 1347V202Q652 188 652 174T653 147T655 127T659 119Q671 111 688 107T726 102T769 100T814 99Q845 99 853 91T861
76V23Q861 16 853 8T814 0H247V0Z" />
<glyph unicode="2" glyph-name="two" horiz-adv-x="1049" d="M100 0Q83 0 75 1T62 6T57 18T56 40Q56 57 68 73T97 109Q145 166 201 223T314 337Q390 413 460 490T583 643T668 793T700 940Q700 994 681 1046T628 1140T552 1206T460 1231Q408 1231 363 1211T280
1158T218 1081T181 991Q178 980 176 971T169 955T153 944T123 940H114Q100 940 93 943T85 961Q85 966 89 998T105 1072T136 1158T186 1233H185Q226 1275 265 1303T345 1348T428 1372T519 1380Q616 1380 695 1349T831 1264T918 1135T949 975Q949 913 921 852T843
726T722 596T566 456Q557 449 537 430T491 386T434 331T377 273T326 221T291 182H834Q856 182 870 188T894 211T914 256T934 326H999L953 44Q950 30 936 15T887 0H100V0Z" />
<glyph unicode="3" glyph-name="three" horiz-adv-x="1049" d="M425 -26Q394 -26 354 -25T272 -17T190 -1T119 27T68 71T49 133Q49 155 59 172T86 200T124 217T170 223Q198 223 222 211T269 182T314 144T360 106T411 76T470 64Q529 69 574 105T649 194T694 311T709
435Q709 509 692 561T650 646T593 694T534 710Q511 710 494 705T464 694T442 680T425 667Q418 662 410 659T385 656Q367 656 357 669T346 694Q346 700 358 714T382 739Q418 771 457 811T529 895T582 985T603 1076Q603 1110 590 1141T554 1198T503 1238T444 1253Q387
1253 344 1234T270 1185T218 1124T183 1065Q177 1054 170 1051T150 1048Q145 1048 138 1050T123 1056T111 1066T106 1080Q106 1079 107 1083T111 1092Q113 1097 116 1104Q141 1164 181 1215T271 1302T375 1359T485 1380Q564 1380 628 1364T738 1317T809 1241T834
1136Q834 1091 816 1050T768 972T701 901T624 841Q712 832 775 799T878 717T938 605T957 477Q957 403 933 337T869 215T776 115T663 39T543 -9T425 -26Z" />
<glyph unicode="4" glyph-name="four" horiz-adv-x="1049" d="M46 395Q46 399 46 405T46 419T47 431T50 439L650 1356Q656 1365 664 1369T681 1376T698 1378T713 1379Q721 1379 734 1379T760 1376T782 1368T792 1353V571Q792 552 794 549T811 546H978Q989 546
999 544T1009 528V380Q1009 356 989 356H807Q796 356 794 354T792 336V11Q792 6 789 -5T765 -16H587Q573 -16 570 -7T567 7V326Q567 337 567 343T562 352T550 355T527 356H90Q71 356 59 368T46 395ZM235 558Q235 550 241 548T267 546H545Q558 546 561 552T567 566V967Q567
981 564 993T549 1006Q541 1006 534 999T520 985L246 575Q244 573 243 571T239 565Q237 561 235 558Z" />
<glyph unicode="5" glyph-name="five" horiz-adv-x="1049" d="M84 111Q84 132 94 148T121 177T159 195T203 202Q240 202 272 179T335 128T399 77T470 54Q519 54 555 71T617 116T661 180T688 254T703 328T707 395Q707 466 693 517T656 604T603 662T543 696T483
713T432 717Q407 717 381 709T332 690T291 668T261 649Q255 647 251 645T243 640T232 637T216 635Q194 635 181 641T167 664L197 1340H753Q762 1340 767 1343T776 1352T782 1365T790 1380H859L832 1165H294L279 858Q297 864 321 869T374 877T432 883T488 886Q530
886 580 875T681 842T779 786T864 706T923 600T945 468Q945 372 922 298T860 169T768 77T656 17T535 -16T414 -26Q396 -26 365 -24T297 -16T222 0T154 25T104 61T84 111Z" />
<glyph unicode="6" glyph-name="six" horiz-adv-x="1049" d="M60 506Q60 642 102 752T228 958T437 1143T731 1324Q740 1329 759 1338T800 1356T844 1371T885 1378Q918 1378 932 1375T947 1358Q947 1348 923 1330T865 1291T800 1252T753 1223Q723 1202 675 1167T578
1087T489 995T434 900Q448 904 468 907T515 910Q619 910 705 873T854 773T950 624T985 443Q985 345 950 260T852 111T703 11T514 -26Q440 -26 378 -5T265 53T176 142T112 252T73 375T60 506ZM526 55Q586 55 626 88T690 174T724 291T734 416Q734 494 723 567T684
697T608 788T485 823Q429 823 393 795T337 716T310 597T302 450Q302 409 306 364T320 274T346 191T388 121T447 73T526 55Z" />
<glyph unicode="7" glyph-name="seven" horiz-adv-x="1049" d="M297 10Q318 59 350 131T422 288T503 466T587 649T666 823T733 971T779 1079T799 1132H262Q235 1132 220 1120T200 1093L147 963Q140 946 133 940T103 934Q78 934 68 943T60 961L120 1306Q121 1309
123 1315T132 1326T148 1336T174 1340H933Q959 1340 979 1331T1000 1296Q1000 1281 996 1253T980 1201L427 -26H297V10Z" />
<glyph unicode="8" glyph-name="eight" horiz-adv-x="1049" d="M142 316Q142 378 161 429T212 525T289 609T384 686Q344 726 307 765T242 848T196 939T179 1045Q179 1120 203 1181T271 1287T380 1355T526 1380Q598 1380 662 1357T774 1293T850 1193T878 1066Q878
1037 868 1005T840 942T800 879T752 822T700 774T651 740Q701 698 747 658T828 570T884 465T905 332Q905 260 877 195T800 82T683 4T537 -25Q460 -25 389 -1T262 67T175 175T142 316ZM345 310Q345 256 358 209T396 125T457 68T539 47Q566 47 594 61T645 107T682
188T697 306Q697 350 673 394T613 479T537 554T464 614Q405 569 375 491T345 310ZM376 1118Q376 1067 392 1024T436 943T500 872T574 806Q579 801 583 801Q587 801 592 804T608 817Q629 839 644 868T668 929T681 997T686 1067Q686 1112 678 1156T650 1234T599 1289T524
1310Q488 1310 460 1295T414 1253T386 1192T376 1118Z" />
<glyph unicode="9" glyph-name="nine" horiz-adv-x="1049" d="M82 -7Q82 5 94 15T123 33Q183 64 246 100T369 180T484 273T584 384Q590 391 597 402T613 426T628 450T641 471Q601 460 561 453T474 446Q372 446 294 486T162 590T80 735T52 899Q52 989 83 1075T171
1229T311 1338T497 1380Q615 1380 707 1337T864 1221T962 1052T996 848Q996 710 952 589T828 366T640 184T402 47Q375 35 344 22T277 -2T204 -20T127 -27Q104 -27 93 -24T82 -7ZM542 531Q582 531 620 544T691 582Q706 593 714 627T728 703T734 787T736 859Q736
900 734 948T723 1046T700 1140T660 1221T597 1278T507 1299Q442 1299 403 1259T342 1158T314 1023T307 884Q307 822 322 759T366 646T440 563T542 531Z" />
<glyph unicode=":" glyph-name="colon" horiz-adv-x="594" d="M130 775Q130 809 143 839T179 893T232 929T297 942Q331 942 361 929T415 893T451 840T464 775Q464 740 451 710T415 657T362 621T297 608Q262 608 232 621T179 657T143 710T130 775ZM130 127Q130
161 143 191T179 245T232 281T297 294Q331 294 361 281T415 245T451 192T464 127Q464 92 451 62T415 9T362 -27T297 -40Q262 -40 232 -27T179 9T143 62T130 127Z" />
<glyph unicode=";" glyph-name="semicolon" horiz-adv-x="600" d="M138 772Q138 806 151 836T187 890T240 926T305 939Q339 939 369 926T423 890T459 837T472 772Q472 737 459 707T423 654T370 618T305 605Q270 605 240 618T187 654T151 707T138 772ZM209 -302Q189
-302 184 -289T179 -265Q180 -252 187 -241T206 -221T228 -204T249 -187Q263 -173 278 -156T305 -120T325 -81T333 -41Q333 -33 331 -24T311 -15Q279 -15 246 -5T184 25T139 74T121 143Q121 181 133 210T167 260T218 290T284 301Q346 301 384 278T444 221T472 151T479
87Q479 33 462 -19T418 -117T354 -202T280 -269Q265 -280 246 -291T209 -302Z" />
<glyph unicode="&lt;" glyph-name="less" horiz-adv-x="1049" d="M438 625Q550 558 666 489T895 353V129L154 570V676L895 1109V891L438 625Z" />
<glyph unicode="=" glyph-name="equal" horiz-adv-x="1049" d="M980 904V717H70V904H980ZM980 534V347H70V534H980Z" />
<glyph unicode="&gt;" glyph-name="greater" horiz-adv-x="1049" d="M154 892V1110L895 677V571L154 130V354Q266 420 382 489T611 626L154 892Z" />
<glyph unicode="?" glyph-name="question" horiz-adv-x="778" d="M272 358Q264 358 253 372T229 410T206 463T185 520T169 574T161 616Q161 680 186 720T250 787T339 832T435 870Q466 883 493 900T541 939T574 991T586 1059Q586 1105 565 1135T498 1182T378 1206T198
1213Q180 1214 161 1221T127 1241T101 1270T90 1309Q90 1339 99 1365T128 1412T180 1443T260 1455Q344 1455 416 1420T540 1326T623 1189T653 1026Q653 967 635 907T585 794T509 697T413 629Q388 617 363 607T317 583T284 546T271 488Q271 467 273 457T279 439T290
419T305 386Q305 384 301 379T291 370T280 362T272 358ZM116 115Q116 146 128 174T160 223T208 256T268 268Q299 268 327 256T375 223T407 174T419 115Q419 84 407 56T375 7T327 -27T268 -40Q236 -40 209 -28T161 6T128 56T116 115Z" />
<glyph unicode="@" glyph-name="at" horiz-adv-x="2049" d="M1949 162Q1897 25 1816 -87T1626 -283T1383 -415T1092 -475Q958 -475 836 -444T609 -356T420 -216T275 -31T183 191T150 446Q150 580 182 707T275 948T419 1157T608 1321T835 1428T1091 1467Q1217 1467
1324 1439T1517 1360T1669 1241T1779 1091T1845 919T1868 736Q1868 625 1844 527T1778 347T1680 199T1558 89T1423 19T1284 -5Q1253 -5 1212 -2T1133 15T1070 59T1044 144Q1044 188 1049 217T1060 270Q1052 262 1042 254T1021 236Q987 206 946 171T864 105T786
54T723 33Q691 33 668 48T629 89T603 146T588 210T580 270T578 319Q578 415 611 504T702 671T835 813T999 923T1178 994T1359 1020Q1377 1020 1386 1015T1400 1000T1405 981T1406 961L1254 264L1255 266L1253 250Q1252 244 1252 238T1251 229Q1251 183 1276 159T1343
134Q1397 134 1446 159T1539 229T1619 330T1680 452T1720 583T1734 711Q1734 830 1693 939T1570 1133T1368 1271T1091 1332Q980 1325 877 1288T685 1189T522 1047T396 869T314 666T285 446Q285 273 346 129T515 -119T770 -282T1091 -340Q1224 -340 1337 -302T1541
-192T1704 -21T1824 203H1921L1949 162ZM772 348Q772 331 773 310T780 269T797 237T828 224Q861 224 898 249T970 310T1036 382T1089 442L1181 846Q1136 845 1090 832T1001 797T924 743T864 673Q816 597 797 517T772 348Z" />
<glyph unicode="A" glyph-name="A" horiz-adv-x="1541" d="M5 47Q5 55 13 55Q32 56 57 60T109 79T161 122T203 201L605 1367Q605 1366 605 1368T606 1372Q606 1379 601 1389T595 1405Q595 1410 599 1410H889Q891 1409 894 1408T900 1402L1323 215Q1333 187 1342
167T1363 132T1395 104T1444 78Q1458 71 1482 63T1528 55Q1533 55 1534 52T1536 46V8Q1536 6 1535 3T1528 0H826Q821 0 820 3T818 8V47Q818 49 819 52T826 55Q830 55 834 55T840 56Q851 57 871 58T916 61T964 69T1009 85T1042 113T1055 155Q1055 161 1053 169L922
530Q921 532 919 539T911 553T897 567T876 573H515Q502 573 493 567T478 554T469 540T465 532Q433 438 411 374T375 267T352 202T341 169T337 156T336 153Q336 150 337 147T339 140Q347 115 368 99T418 73T475 59T528 55H554Q559 55 560 52T562 47V8Q562 6 561
3T554 0H13Q5 0 5 8V47ZM529 717Q527 712 526 707T525 697Q525 691 528 688T540 684H840Q851 684 854 688T858 699Q858 704 857 708T854 717L721 1082Q716 1096 706 1102T688 1109Q680 1109 670 1102T655 1081L529 717Z" />
<glyph unicode="B" glyph-name="B" horiz-adv-x="1482" d="M10 47Q10 49 11 52T18 55Q37 55 66 57T127 64T193 80T252 105T294 141T311 191V1216Q311 1267 296 1295T256 1338T196 1355T123 1359H66Q61 1359 60 1362T58 1367V1407Q58 1409 59 1412T66 1415Q67 1415
76 1415T110 1416T175 1416T282 1417Q296 1417 330 1418T409 1420T503 1422T597 1425T677 1427T728 1428Q779 1428 841 1425T967 1409T1091 1375T1197 1315T1272 1222T1300 1090Q1300 1044 1286 1006T1249 939T1200 888T1152 852T1113 830T1094 822Q1151 790 1202
752T1293 667T1354 562T1377 436Q1377 355 1355 293T1297 185T1215 108T1119 56T1022 24T933 7T866 1T830 0H18Q13 0 12 3T10 8V47ZM601 266Q601 227 621 196T672 142T741 107T818 94Q882 94 931 118T1012 185T1060 287T1077 418Q1077 503 1051 567T978 674T866
738T723 760H614Q604 760 603 757T601 749V266ZM778 852Q826 852 867 869T939 918T987 991T1005 1084Q1005 1160 987 1209T932 1288T843 1328T719 1340Q704 1340 684 1338T644 1331T612 1315T599 1289V871Q599 868 602 860T622 852H778Z" />
<glyph unicode="C" glyph-name="C" horiz-adv-x="1589" d="M105 696Q105 808 133 907T212 1091T335 1242T494 1355T682 1427T891 1452Q983 1452 1068 1436T1245 1397Q1260 1393 1276 1387T1307 1376T1334 1366T1352 1362Q1354 1362 1365 1366T1382 1370H1428Q1440
1370 1440 1353V1027Q1440 1021 1436 1019T1416 1017Q1413 1017 1401 1017T1385 1023Q1383 1026 1378 1035T1366 1053T1354 1071T1347 1083Q1309 1158 1264 1209T1165 1293T1046 1339T907 1354Q812 1354 739 1332T610 1270T518 1174T457 1052T423 910T412 754Q412
669 424 586T463 427T532 287T635 175T775 100T956 73Q1041 73 1114 98T1249 167T1357 267T1439 386Q1441 391 1443 391T1451 392H1502Q1505 392 1508 390T1512 379Q1512 376 1508 364T1498 342L1360 38Q1358 35 1354 33T1347 31Q1323 31 1314 35T1294 39Q1264
39 1215 29T1108 6T992 -16T887 -27Q782 -27 683 -4T497 62T338 169T214 313T134 489T105 696Z" />
<glyph unicode="D" glyph-name="D" horiz-adv-x="1754" d="M53 0Q47 0 46 3T45 8V51Q45 52 46 55T53 59H75Q96 59 127 61T187 75T236 110T257 175V1241Q257 1272 244 1293T210 1328T164 1348T117 1354H53Q47 1354 46 1357T45 1362V1405Q45 1406 46 1409T53 1413H75L486
1420Q544 1421 611 1421T737 1422Q800 1422 850 1421T946 1415T1039 1403T1144 1384Q1255 1361 1350 1299T1515 1149T1624 954T1664 735Q1664 627 1634 531T1551 353T1424 206T1262 95T1075 25T872 0H82H53ZM542 155Q542 126 560 110T609 87T681 78T767 77Q1064
77 1212 241T1361 719Q1361 857 1328 972T1226 1170T1054 1299T809 1345H567Q552 1345 547 1339T542 1318V160V155Z" />
<glyph unicode="E" glyph-name="E" horiz-adv-x="1309" d="M7 51Q7 52 8 55T15 59H37Q79 62 123 62T203 73T262 110T285 193V1217Q285 1256 269 1280T227 1320T168 1342T101 1355H80Q75 1355 74 1358T72 1363V1402Q72 1404 73 1407T80 1410H1076Q1094 1410 1102
1404T1112 1375L1130 1055Q1130 1050 1122 1048T1106 1045Q1098 1045 1090 1047T1079 1053Q1072 1063 1069 1082T1063 1126T1053 1176T1033 1224T998 1262T940 1285H583Q570 1285 570 1272V795Q570 785 580 785H866Q891 785 915 791T958 815T988 862T1000 941Q1000
949 1008 949H1047Q1055 949 1055 941V483Q1055 478 1052 477T1047 475H1008Q1003 475 1002 478T1000 483Q1000 539 989 573T958 627T915 653T863 660H580Q570 660 570 650V213Q570 184 579 167T603 140T639 128T681 125H954Q1012 125 1051 151T1114 216T1149 295T1164
365Q1166 378 1177 385T1202 393Q1207 393 1214 389T1221 380L1188 14Q1186 9 1183 5T1174 0H15Q9 0 8 3T7 8V22V51Z" />
<glyph unicode="F" glyph-name="F" horiz-adv-x="1212" d="M888 819Q902 819 925 821T969 836T1006 875T1022 950Q1022 958 1030 958H1069Q1077 958 1077 950V548Q1077 543 1074 542T1069 540H1030Q1025 540 1024 543T1022 548Q1022 602 1007 631T970 675T927
691T890 694H556Q544 694 538 687T532 667V188Q532 161 542 143T571 111T615 87T670 68Q685 63 702 59T730 55Q736 55 737 52T738 47V8Q738 6 737 3T730 0H94Q89 0 88 3T86 8V47Q86 49 87 52T94 55Q105 55 122 59T149 68Q192 87 219 118T247 195V1260Q247 1298
226 1320T179 1353T129 1367T99 1370H95Q90 1370 89 1373T87 1378V1402Q87 1404 88 1407T95 1410H1083Q1095 1408 1101 1405T1107 1387V1115Q1107 1103 1100 1100T1084 1097H1064Q1062 1098 1059 1114T1049 1153T1035 1198T1015 1234Q1001 1249 988 1259T959 1275T922
1283T871 1285H552Q532 1285 532 1265V842Q532 819 556 819H888V819Z" />
<glyph unicode="G" glyph-name="G" horiz-adv-x="1666" d="M115 717Q115 818 142 911T218 1085T335 1233T486 1348T661 1422T854 1448Q907 1448 962 1442T1069 1425T1169 1403T1251 1381T1309 1365T1335 1358H1347Q1355 1358 1359 1359T1367 1363T1375 1366T1387
1368H1427Q1429 1368 1433 1367T1438 1357V1024Q1438 1013 1429 1009T1412 1005Q1403 1006 1396 1015T1383 1035T1373 1056T1368 1071Q1343 1149 1298 1202T1191 1290T1056 1339T901 1354Q762 1354 669 1303T520 1166T440 968T416 731Q416 646 433 564T481 409T558
274T658 168T778 98T915 73Q996 73 1057 90T1157 159V380Q1157 423 1147 456T1108 513T1032 548T909 560Q903 560 901 571T898 591Q898 596 900 608T909 620H1605Q1613 620 1614 609T1616 591Q1616 586 1614 575T1605 560Q1578 549 1550 541T1497 520T1458 485T1442
423V131Q1442 123 1436 118T1415 107Q1359 80 1288 56T1142 14T993 -16T858 -27Q703 -27 568 24T332 172T173 407T115 717Z" />
<glyph unicode="H" glyph-name="H" horiz-adv-x="1802" d="M68 0Q63 0 62 3T60 8V62Q60 64 61 67T68 70Q99 70 130 74T188 94T230 137T247 213V1215Q247 1249 236 1272T205 1309T157 1331T95 1340Q87 1340 87 1348V1402Q87 1410 94 1410H686Q691 1410 692 1407T694
1402V1348Q694 1342 686 1342Q656 1342 628 1337T579 1316T545 1274T532 1201V789Q532 779 535 776T548 773H1246Q1256 773 1259 776T1262 789V1217Q1262 1252 1240 1275T1185 1311T1112 1331T1040 1340Q1032 1340 1032 1348V1402Q1032 1410 1039 1410H1706Q1711
1410 1712 1407T1714 1402V1348Q1714 1342 1706 1342Q1676 1342 1648 1337T1597 1316T1561 1274T1547 1201V211Q1547 185 1554 165T1578 124Q1594 102 1630 87T1734 70Q1742 70 1742 62V8Q1742 0 1734 0H1008Q1003 0 1002 3T1000 8V62Q1000 64 1001 67T1008 70Q1038
70 1081 74T1164 91T1233 130T1262 200V632Q1262 642 1259 645T1246 648H548Q538 648 535 645T532 632V190Q532 156 547 133T586 96T643 76T709 70Q715 70 716 67T717 62V8Q717 6 716 3T710 0H68V0Z" />
<glyph unicode="I" glyph-name="I" horiz-adv-x="789" d="M537 190Q537 156 547 133T577 96T625 76T689 70Q697 70 697 62V8Q697 5 696 3T689 0H98Q93 0 92 3T90 8V62Q90 64 91 67T98 70Q133 70 161 74T210 94T241 137T252 213V1220Q252 1254 242 1277T212 1314T164
1334T100 1340Q92 1340 92 1348V1402Q92 1410 100 1410H691Q696 1410 697 1407T699 1402V1348Q699 1346 698 1343T691 1340Q656 1340 628 1336T579 1316T548 1273T537 1197V190V190Z" />
<glyph unicode="J" glyph-name="J" horiz-adv-x="783" d="M246 1235Q246 1273 233 1296T194 1333T133 1350T52 1355Q44 1355 44 1363V1402Q44 1410 52 1410H685Q690 1410 691 1407T693 1402V1363Q693 1361 692 1358T685 1355Q654 1355 626 1351T577 1331T544 1288T531
1212V-10Q531 -84 517 -159T473 -305T398 -436T293 -542T158 -614T-10 -640Q-135 -640 -192 -611T-250 -535Q-250 -514 -241 -496T-217 -463T-184 -441T-148 -433Q-118 -433 -96 -440T-58 -457T-29 -480T-3 -503T25 -521T61 -528Q106 -528 137 -510T189 -461T221
-387T238 -298T245 -200T246 -100V1235V1235Z" />
<glyph unicode="K" glyph-name="K" horiz-adv-x="1659" d="M248 1235Q248 1269 230 1292T182 1329T118 1351T48 1360Q40 1360 40 1368V1402Q40 1410 47 1410H725Q730 1410 731 1407T733 1402V1368Q733 1362 725 1362Q696 1362 663 1357T600 1338T552 1299T533
1233V822Q533 780 536 757T550 734Q556 734 561 734T572 738Q629 764 674 801T758 882T830 975T897 1075Q915 1103 935 1130T971 1184T999 1234T1010 1283Q1010 1310 997 1325T964 1348T921 1358T878 1360H868Q863 1360 862 1363T860 1368V1402Q860 1404 861 1407T868
1410H1476Q1481 1410 1482 1407T1484 1402V1368Q1484 1365 1481 1361T1472 1356Q1411 1354 1362 1346T1271 1319T1196 1267T1130 1181Q1077 1091 1035 1027T961 919T905 848T867 804T843 775T832 752Q837 742 855 726T902 682T973 615T1066 517T1181 379T1317 195Q1352
144 1405 113T1524 68Q1558 60 1578 56T1610 51T1629 49T1646 48Q1651 48 1652 45T1654 40V8Q1654 0 1646 0H902Q894 0 894 8V42Q894 49 902 50Q915 52 938 52T984 54T1024 68T1041 104Q1039 121 1019 154T968 226T904 307T840 381Q805 420 774 460T709 534T640
589T562 610H543Q535 610 534 607T533 596V173Q533 128 551 103T598 66T661 51T725 48Q730 48 731 45T733 40V8Q733 6 732 3T725 0H47Q40 0 40 8V42Q40 50 48 50Q82 51 117 58T182 80T229 118T248 175V1235Z" />
<glyph unicode="L" glyph-name="L" horiz-adv-x="1299" d="M48 0Q43 0 42 3T40 8V62Q40 64 41 67T48 70H72Q75 70 91 71T129 76T174 86T213 101Q248 121 265 152T282 223V1221Q282 1257 259 1280T203 1316T137 1335T83 1340H61Q56 1340 55 1343T53 1348V1402Q53
1404 54 1407T61 1410H828Q833 1410 834 1407T836 1402V1348Q836 1346 835 1343T828 1340H785Q729 1340 681 1331T603 1311Q580 1303 574 1285T567 1221V172Q569 155 585 140T621 125H971Q1006 125 1037 140T1096 178T1146 230T1188 284T1222 330T1248 360Q1253
363 1259 366T1275 369Q1292 369 1292 356Q1292 350 1289 344L1123 18Q1119 10 1114 5T1102 0H48V0Z" />
<glyph unicode="M" glyph-name="M" horiz-adv-x="1988" d="M26 52Q26 54 27 57T34 60Q100 60 136 75T190 118T212 184T218 266Q224 395 232 516T249 755T263 988T269 1219V1256Q269 1279 254 1296T219 1326T177 1344T144 1350Q136 1350 136 1358V1402Q136 1404
137 1407T144 1410H498Q509 1408 516 1403T529 1388L964 418Q971 401 982 401Q993 401 998 406T1006 419L1436 1370Q1446 1389 1456 1399T1476 1410H1828Q1834 1410 1835 1407T1836 1402V1358Q1836 1356 1835 1353T1828 1350Q1826 1350 1805 1346T1758 1331T1711
1298T1690 1241L1748 176Q1749 147 1763 127T1799 94T1843 75T1887 65T1922 61T1938 60Q1943 60 1944 57T1946 52V8Q1946 6 1945 3T1938 0H1280Q1272 0 1272 8V52Q1272 60 1280 60Q1304 60 1334 62T1393 74T1440 100T1459 147L1413 964Q1412 974 1408 974Q1404
974 1400 965L962 17Q957 6 949 3T919 0Q883 0 866 2T842 18L416 957Q413 964 412 967T406 971Q399 971 399 958Q399 928 396 870T388 740T378 586T368 429T360 288T357 180V139Q361 120 377 105T417 80T470 65T531 60Q536 60 536 57T537 52V8Q537 0 531 0H34Q26
0 26 8V52Z" />
<glyph unicode="N" glyph-name="N" horiz-adv-x="1777" d="M68 0Q66 0 63 2T60 8V52Q60 60 68 60Q79 60 93 60T120 61T145 63T162 67Q187 79 203 99T227 145T239 202T242 268V1267Q242 1294 221 1310T171 1335T113 1347T68 1350Q63 1350 62 1353T60 1358V1402Q60
1404 61 1407T68 1410H521L1383 456Q1388 451 1390 449T1395 446Q1399 446 1400 449T1401 455V1049Q1401 1148 1394 1207T1368 1298T1317 1340T1235 1350H1184Q1179 1350 1178 1353T1176 1358V1402Q1176 1404 1177 1407T1184 1410H1734Q1740 1410 1741 1407T1742
1402V1358Q1742 1356 1741 1353T1734 1350Q1714 1350 1683 1342T1621 1319T1570 1282T1548 1232V49Q1548 32 1540 21T1520 2T1493 -8T1466 -12Q1446 -12 1420 -4T1367 34L423 1081Q416 1088 413 1089T405 1091Q400 1091 400 1081V188Q400 160 413 140T448 105T494
82T544 68T588 62T618 60Q623 60 625 56Q626 54 626 52V8Q626 6 625 3T618 0H68V0Z" />
<glyph unicode="O" glyph-name="O" horiz-adv-x="1826" d="M902 -26Q867 -26 815 -20T700 2T569 44T436 110T311 206T208 335T137 503T110 714Q110 818 138 913T220 1090T348 1239T517 1353T719 1426T948 1452Q1052 1452 1149 1427T1332 1355T1487 1243T1609 1098T1688
926T1716 733Q1716 639 1689 547T1611 370T1488 213T1325 88T1128 4T902 -26ZM404 751Q404 670 420 589T469 433T548 293T655 179T788 103T948 75Q1069 75 1158 126T1305 263T1392 458T1421 687Q1421 773 1405 855T1357 1012T1279 1149T1172 1258T1038 1329T878
1355Q801 1355 736 1331T619 1266T526 1167T459 1042T418 901T404 751Z" />
<glyph unicode="P" glyph-name="P" horiz-adv-x="1301" d="M100 0Q92 0 92 10V52Q92 53 93 56T100 60Q134 60 163 70T215 97T250 138T263 190V1206Q263 1256 253 1284T224 1327T175 1345T106 1349H61Q50 1349 45 1361T40 1383Q40 1388 42 1398T53 1410Q54 1410
59 1410T79 1410T116 1411T178 1413Q233 1414 295 1416T422 1420T548 1423T666 1425H807Q887 1425 963 1398T1098 1319T1193 1188T1229 1008Q1229 944 1210 886T1159 778T1084 690T995 623T900 582Q858 571 821 571Q815 571 810 571L571 583Q570 583 563 583T553
581Q550 579 549 577T548 569V193Q548 154 569 129T625 88T703 67T788 60Q794 60 795 57T796 52V8Q796 6 795 3T788 0H100ZM550 696Q551 688 554 682T569 674Q573 674 583 673T608 671T638 669T671 668Q738 668 788 695T872 770T922 885T939 1032Q939 1197 873
1274T679 1351Q665 1351 653 1351T629 1350T604 1349T573 1347Q567 1347 558 1345T548 1331V726L550 696Z" />
<glyph unicode="Q" glyph-name="Q" horiz-adv-x="1822" d="M880 -26Q860 -24 838 -22T796 -16Q657 9 533 72T314 230T165 446T110 707Q110 872 172 1008T342 1243T599 1396T922 1450Q1033 1450 1134 1426T1323 1356T1483 1246T1605 1099T1684 922T1712 717Q1712
598 1672 493T1562 299T1396 138T1190 13Q1233 -19 1275 -51T1355 -111T1421 -163T1469 -201Q1479 -209 1482 -212T1488 -216Q1530 -250 1570 -279T1646 -322Q1651 -324 1655 -325T1667 -328H1666Q1681 -331 1698 -335T1729 -345T1753 -356T1762 -368Q1762 -387
1747 -397T1707 -412T1655 -418T1601 -419Q1519 -419 1453 -400T1324 -344Q1277 -316 1236 -288T1158 -230T1084 -171T1010 -106Q978 -77 947 -54T880 -26ZM402 747Q402 663 419 581T470 423T552 285T663 175T800 102T961 75Q1058 75 1143 118T1290 240T1389 431T1425
680Q1425 805 1391 922T1290 1132T1121 1284T884 1355Q773 1355 684 1306T532 1174T436 980T402 747Z" />
<glyph unicode="R" glyph-name="R" horiz-adv-x="1509" d="M44 52Q44 53 45 56T52 60Q58 60 71 62T98 66T124 70T141 74Q198 87 220 116T243 190V1206Q243 1256 222 1285T174 1328T121 1346T86 1350H48Q43 1350 42 1353T40 1358V1402Q40 1404 41 1406T48 1410Q49
1410 52 1410T67 1410T99 1411T158 1413Q213 1414 275 1416T402 1420T528 1423T646 1425H747Q826 1425 908 1398T1056 1319T1165 1188T1208 1008Q1208 942 1190 891T1141 800T1066 730T971 677L1274 197Q1313 135 1365 85T1486 14Q1494 12 1495 9T1497 0Q1497 -15
1489 -20T1464 -25Q1422 -25 1369 -20T1261 -2T1159 31T1077 81Q1045 109 1012 152T946 244T880 347T817 452T758 547T707 622L551 633Q550 633 543 633T533 631Q530 629 529 627T528 619V193Q528 166 535 146T558 112T601 88T666 74Q672 73 683 71T708 67T735
62T757 60Q763 60 764 57T765 52V8Q765 6 764 3T757 0H52Q47 0 46 14T44 40V52ZM530 733Q531 725 534 719T549 711Q558 710 576 708T626 705Q714 705 771 732T861 804T906 909T919 1032Q919 1099 898 1159T840 1263T750 1333T634 1359Q620 1359 612 1359T597 1358T580
1357T553 1355Q547 1355 538 1353T528 1339V763L530 733Z" />
<glyph unicode="S" glyph-name="S" horiz-adv-x="1087" d="M136 27Q123 27 120 48Q109 142 103 194T95 272T92 305T91 316Q91 327 101 340T125 353Q135 353 146 341T168 313T186 281T196 258Q222 203 252 166T322 106T410 73T522 63Q629 63 688 114T748 278Q748
343 720 396T645 494T540 581T419 664T298 751T193 852T119 974T90 1125Q90 1176 108 1220T158 1300T230 1364T319 1412T414 1442T509 1452Q546 1452 583 1446T657 1430T731 1411T804 1391L870 1397Q879 1397 881 1390T885 1376L914 1141Q914 1136 901 1134T881
1132Q875 1132 863 1133T849 1137Q846 1140 842 1149T832 1170T822 1194T810 1215Q762 1289 687 1325T522 1362Q483 1362 449 1353T390 1325T351 1275T336 1203Q336 1142 364 1093T439 1000T545 915T666 832T787 741T893 635T968 506T997 346Q997 287 977 236T921
144T839 70T739 17T629 -16T518 -27Q450 -27 400 -17T313 5T251 28T209 38Q203 38 200 37L136 27Z" />
<glyph unicode="T" glyph-name="T" horiz-adv-x="1502" d="M608 1257Q608 1278 600 1280T579 1285H240Q203 1277 182 1256T149 1205T131 1143T118 1078Q116 1069 114 1057T110 1042Q108 1039 103 1039H70Q64 1039 64 1043V1076L101 1418Q103 1429 110 1439T132
1449Q139 1449 145 1445T158 1436T169 1425T181 1418Q193 1413 203 1412T227 1410H1275Q1288 1410 1298 1411T1321 1418Q1327 1420 1332 1425T1344 1435T1356 1445T1370 1449Q1385 1449 1392 1439T1401 1418L1438 1076V1043Q1438 1039 1432 1039H1399Q1394 1039
1392 1042Q1390 1044 1388 1056T1384 1078Q1377 1109 1371 1142T1353 1205T1320 1255T1262 1285H922Q910 1283 902 1281T893 1257V195Q893 165 908 142T948 100T1008 71T1082 56Q1093 55 1110 55T1139 55Q1144 55 1145 52T1147 47V8Q1147 6 1146 3T1139 0H362Q357
0 356 3T354 8V47Q354 49 355 52T362 55Q373 55 390 55T419 56Q458 60 492 71T552 100T593 141T608 195V1257V1257Z" />
<glyph unicode="U" glyph-name="U" horiz-adv-x="1672" d="M211 1235Q211 1264 198 1286T161 1324T108 1347T44 1355Q36 1355 36 1363V1402Q36 1410 43 1410H675Q680 1410 681 1407T683 1402V1363Q683 1361 682 1358T675 1355Q645 1355 614 1351T556 1333T513
1293T496 1221V520Q496 320 598 211T903 101Q987 101 1064 124T1200 197T1294 322T1329 503V1124Q1329 1158 1327 1194T1310 1262T1266 1317T1181 1350Q1156 1354 1140 1354T1118 1355Q1110 1355 1110 1363V1402Q1110 1410 1118 1410H1640Q1645 1410 1646 1407T1648
1402V1363Q1648 1361 1646 1358T1640 1355Q1604 1355 1577 1350T1535 1338Q1518 1331 1504 1317T1481 1286T1466 1252T1461 1221V581Q1461 440 1424 328T1313 137T1125 16T861 -27Q789 -27 713 -16T564 19T427 81T315 172T239 294T211 450V1235V1235Z" />
<glyph unicode="V" glyph-name="V" horiz-adv-x="1595" d="M727 -27Q703 -27 696 -5L175 1257Q166 1279 152 1294T122 1320T93 1336T70 1344Q63 1346 54 1348T37 1351T21 1354T13 1355Q5 1355 5 1363V1402Q5 1410 13 1410H693Q699 1410 700 1408T701 1402V1363Q701
1361 700 1358T693 1355H678Q653 1351 622 1347T563 1333T517 1302T498 1245Q498 1232 502 1215T512 1187L869 321Q870 318 871 317T875 313Q877 311 879 311Q886 311 890 322L1218 1208Q1222 1219 1226 1228T1231 1248Q1231 1283 1208 1308T1144 1341Q1138 1342
1125 1344T1096 1348T1067 1353T1047 1355Q1039 1355 1039 1363V1402Q1039 1404 1040 1407T1047 1410H1582Q1588 1410 1589 1407T1590 1402V1363Q1590 1360 1589 1358T1582 1355H1545Q1490 1344 1455 1313T1395 1239T1353 1148T1319 1054L932 8Q923 -17 910 -22T874
-27H727V-27Z" />
<glyph unicode="W" glyph-name="W" horiz-adv-x="2352" d="M1448 -27Q1424 -27 1417 -5L1195 532L971 8Q960 -16 948 -21T913 -27H768Q756 -27 749 -22T737 -4L219 1242Q208 1268 187 1285T143 1313T98 1329T64 1337Q57 1338 47 1340T27 1345T10 1348T0 1350Q-8
1350 -8 1358V1402Q-8 1410 0 1410H660Q666 1410 667 1408T668 1402V1358Q668 1356 667 1353T660 1350H642Q603 1350 581 1341T548 1319T534 1290T531 1263Q531 1241 537 1222T549 1182L908 317Q913 307 927 307Q933 307 936 310T942 318L1115 726L896 1252Q883
1283 856 1307T804 1337Q790 1342 772 1346T749 1350Q741 1350 741 1358V1402Q741 1410 749 1410H1699Q1705 1410 1706 1407T1707 1402V1358Q1707 1355 1706 1353T1699 1350H1662Q1626 1350 1599 1340T1549 1309T1509 1256T1472 1181L1349 895L1588 320Q1593 310
1607 310Q1617 310 1622 321L2021 1256Q2033 1284 2033 1303Q2033 1329 2011 1339T1927 1350H1865Q1857 1350 1857 1358V1402Q1857 1404 1858 1407T1865 1410H2340Q2346 1410 2347 1407T2348 1402V1358Q2348 1355 2347 1353T2340 1350H2293Q2269 1350 2251 1341T2218
1312T2188 1263T2157 1195L1650 8Q1639 -16 1627 -21T1592 -27H1448ZM1349 1276Q1356 1292 1357 1300T1359 1318Q1359 1350 1291 1350Q1263 1350 1245 1344T1217 1328T1202 1306T1198 1283Q1198 1272 1201 1260T1211 1228T1232 1174T1268 1088L1349 1276Z" />
<glyph unicode="X" glyph-name="X" horiz-adv-x="1725" d="M5 52Q5 60 13 60H52Q87 60 122 75T192 115T258 168T314 224T357 273T382 305L696 715Q601 838 531 929T409 1087T320 1198T251 1270T192 1312T131 1334Q120 1336 104 1339T71 1344T39 1348T13 1350Q8
1350 7 1353T5 1358V1402Q5 1404 6 1407T13 1410H766Q772 1410 773 1407T774 1402V1358Q774 1356 773 1353T766 1350Q685 1350 648 1340T611 1308Q611 1303 622 1284T656 1236L857 971Q862 964 865 963T875 961Q884 961 889 968T902 984L1095 1236Q1105 1248 1118
1267T1131 1305Q1131 1321 1116 1330T1078 1343T1030 1349T985 1350Q977 1350 977 1358V1403Q977 1405 978 1407T985 1410H1556Q1562 1410 1563 1408T1564 1402V1358Q1564 1355 1563 1353T1556 1350Q1452 1350 1377 1306T1244 1186L966 827L1461 174Q1474 157 1491
141T1529 111T1570 87T1613 73Q1625 67 1643 65T1678 59T1707 51T1720 33Q1720 17 1708 9T1681 0H1016Q1011 0 1010 3T1008 8V52Q1008 54 1009 56Q1010 59 1016 60Q1025 62 1044 62T1083 65T1117 81T1132 120Q1132 128 1128 139T1120 155L805 572Q801 577 798 579T788
582Q780 582 778 580T771 572L457 165Q448 153 446 145T443 125Q443 94 462 82T507 67T558 65T594 60Q602 56 602 52V8Q602 6 601 3T594 0H13Q8 0 7 3T5 8V19V52Z" />
<glyph unicode="Y" glyph-name="Y" horiz-adv-x="1634" d="M712 494Q712 500 709 504L300 1158Q283 1185 264 1212T221 1264T170 1307T110 1334Q105 1335 94 1337T71 1342T48 1346T32 1349Q22 1350 13 1361T4 1382Q4 1384 4 1389T6 1398T11 1406T19 1410H698Q709
1410 712 1400T715 1382Q715 1372 714 1361T702 1350Q675 1348 651 1346T610 1337T583 1314T573 1272Q573 1248 585 1229L890 739Q901 722 904 718T916 714Q923 714 928 722T942 743L1183 1152Q1197 1175 1211 1203T1226 1260Q1226 1288 1219 1304T1196 1330T1160
1343T1110 1350Q1099 1351 1097 1362T1095 1382Q1095 1389 1097 1399T1112 1410H1615Q1623 1410 1626 1399T1629 1382Q1629 1372 1623 1365T1607 1354T1587 1347T1567 1342Q1517 1331 1481 1306T1409 1242Q1404 1237 1395 1226T1384 1213L997 548V195Q997 135 1028
102T1138 61Q1149 60 1166 60T1195 60Q1200 60 1201 57T1203 52V8Q1203 6 1202 3T1195 0H514Q509 0 508 3T506 8V52Q506 54 507 57T514 60Q525 60 542 60T571 61Q650 69 681 102T712 195V494Z" />
<glyph unicode="Z" glyph-name="Z" horiz-adv-x="1536" d="M77 43Q77 54 81 65T93 86L998 1257Q1002 1262 1002 1267Q1002 1275 995 1276T982 1277H483Q460 1277 435 1271T387 1252T346 1221T321 1177Q317 1166 311 1136T292 1044Q290 1034 276 1030T245 1025Q242
1025 237 1025T226 1026T215 1028T209 1031L224 1376Q224 1379 225 1386T228 1399Q231 1407 239 1409Q243 1410 247 1410H1371Q1374 1410 1376 1405T1381 1394T1385 1380T1387 1367Q1387 1346 1374 1327L504 202Q501 197 493 185T484 165Q484 151 500 145T530 138H1166Q1222
138 1259 171T1318 252T1351 355T1363 451Q1364 457 1369 460T1380 464T1393 466T1405 466Q1407 466 1413 465T1425 463T1435 459T1440 454V407L1419 59Q1418 48 1418 38T1416 19T1408 6T1390 0H115Q102 0 95 4T83 16T78 30T77 43Z" />
<glyph unicode="[" glyph-name="bracketleft" horiz-adv-x="780" d="M742 1731V1615H504Q431 1615 431 1542V-153Q431 -226 504 -226H765V-342H205V1731H742Z" />
<glyph unicode="\" glyph-name="backslash" horiz-adv-x="725" d="M196 1452H6L531 -27H720L196 1452Z" />
<glyph unicode="]" glyph-name="bracketright" horiz-adv-x="780" d="M15 -342V-226H277Q315 -226 332 -209T349 -153V1542Q349 1580 332 1597T277 1615H37V1731H575V-342H15Z" />
<glyph unicode="^" glyph-name="asciicircum" horiz-adv-x="1115" d="M561 1127L257 679H96L496 1379H627L1019 679H857L561 1127Z" />
<glyph unicode="_" glyph-name="underscore" horiz-adv-x="1014" d="M-16 -205H1030V-320H-16V-205Z" />
<glyph unicode="`" glyph-name="grave" horiz-adv-x="740" d="M519 1062Q514 1055 506 1050T491 1044Q480 1044 471 1051L202 1268Q179 1287 160 1314T140 1378Q140 1397 147 1414T166 1444T195 1464T232 1472Q255 1472 278 1459T323 1415L533 1124Q538 1117 539
1112T541 1099Q541 1096 540 1092T535 1083L519 1062Z" />
<glyph unicode="a" glyph-name="a" horiz-adv-x="1017" d="M487 20Q454 -3 409 -16T319 -29Q197 -29 134 26T70 175Q70 229 94 268T167 337T285 391T449 440Q499 453 529 468T586 497Q603 506 605 513T608 526V700Q608 733 599 761T570 811T524 844T463 856Q434
856 409 846T366 817T338 772T327 713Q327 710 327 704T329 692T331 680T332 674Q331 672 316 666T278 653T228 638T177 623T134 611T108 604Q97 604 95 615T92 638Q92 696 127 751T220 848T355 917T512 943Q584 943 641 925T738 874T799 799T820 708V231Q820 205
839 185T890 164Q908 164 922 170T948 185T968 200T982 207Q990 207 991 201T992 189Q992 172 988 155T972 129Q923 92 885 63T816 12T760 -20T713 -31Q693 -31 678 -20T651 7T631 41T618 76T609 102T604 111L487 20ZM303 199Q303 172 313 155T341 129T379 117T424
113Q445 113 476 123T536 151T587 191T608 237V402Q608 413 600 413Q598 413 596 412L364 304Q350 294 339 286T319 266T307 239T303 199Z" />
<glyph unicode="b" glyph-name="b" horiz-adv-x="1175" d="M358 1639Q362 1641 366 1643T373 1645Q390 1645 390 1621V866Q390 856 392 846T405 835Q409 835 421 841Q458 858 490 875T554 905T618 927T685 936Q764 936 833 900T953 802T1035 656T1065 475Q1065
364 1026 272T918 113T753 10T545 -27Q485 -27 435 -23T339 -11T253 7T172 27Q163 29 161 35T158 51V1363Q158 1387 145 1400T112 1421T69 1432T25 1443Q19 1445 16 1448T12 1463Q12 1468 15 1473T27 1483L358 1639ZM402 751Q394 746 392 741T390 727V244Q400 149
452 100T593 51Q665 51 713 79T790 157T832 274T845 422Q845 500 833 567T790 685T706 765T571 795Q544 795 523 793T482 787T444 773T402 751Z" />
<glyph unicode="c" glyph-name="c" horiz-adv-x="988" d="M90 423Q91 568 134 667T249 828T416 916T617 943Q639 943 669 942T732 936T796 922T853 898T894 860T910 805Q910 781 901 767T876 744T839 732T794 729Q766 729 747 738T711 761T681 791T651 821T613
844T562 854Q492 854 447 819T377 729T342 609T332 485Q332 405 347 338T395 221T482 145T612 117Q640 117 667 126T720 150T768 186T810 229Q820 241 829 249T859 257Q883 257 900 245T918 218Q918 214 917 208T906 189Q868 141 824 101T730 33T623 -10T500 -26Q414
-26 340 12T210 114T122 258T90 423Z" />
<glyph unicode="d" glyph-name="d" horiz-adv-x="1166" d="M960 1639Q964 1641 968 1643T975 1645Q992 1645 992 1621V229Q992 185 1014 166T1082 147L1140 151Q1144 151 1145 146T1146 134Q1146 132 1144 129T1131 121L789 -21Q787 -22 779 -24T770 -27Q763 -27
762 -19T760 -2V67Q760 77 753 77Q750 77 744 74Q709 54 678 36T616 3T550 -19T473 -27Q383 -27 311 10T189 109T112 251T85 418Q85 523 126 613T237 769T399 872T592 910Q619 910 639 905T676 895T710 884T748 879Q751 879 755 881T760 892V1363Q760 1387 747
1400T714 1421T671 1432T627 1443Q621 1445 618 1448T614 1463Q614 1468 617 1473T629 1483L960 1639ZM312 463Q312 391 328 325T379 208T467 127T592 97Q603 97 631 103T687 118T738 141T760 169V666Q760 735 711 778T569 821Q502 821 454 790T374 707T327 592T312
463Z" />
<glyph unicode="e" glyph-name="e" horiz-adv-x="1014" d="M70 405Q70 522 103 620T198 791T349 903T553 943Q587 943 614 939T663 927T705 909T745 886Q768 874 797 843T853 771T897 684T915 594Q915 580 910 564T891 547H301Q291 547 288 529T284 485Q284 397
309 329T378 213T477 141T595 116Q634 116 670 126T739 154T801 192T856 234Q862 236 864 236Q867 236 872 231Q881 223 890 213T904 195Q907 192 907 189Q907 186 903 182Q870 143 822 106T720 39T608 -9T500 -27Q397 -27 317 10T182 109T99 247T70 405ZM657 624Q683
624 683 647Q683 686 671 720T635 781T580 823T507 838Q459 838 423 818T362 768T325 708T312 655Q312 638 317 631T330 624H657Z" />
<glyph unicode="f" glyph-name="f" horiz-adv-x="700" d="M40 30Q40 35 43 46T50 60Q63 66 87 69T135 82T177 115T195 182V761Q195 772 183 772H74Q62 772 51 779T40 801Q40 812 51 820T80 836T117 851T155 868T183 890T195 919V952Q195 1092 231 1222T339 1452T520
1612T774 1672Q788 1672 824 1664T898 1642T965 1609T994 1568Q994 1560 992 1554T986 1539Q984 1534 976 1516T958 1477T941 1436T930 1412Q928 1408 923 1402T911 1396Q909 1396 907 1397T894 1407Q871 1426 842 1449T780 1492T711 1527T638 1541Q559 1541 517
1518T454 1458T431 1376T427 1284V928Q427 922 429 921T437 920H632Q660 920 668 915T681 894Q687 871 690 843T693 793Q693 780 688 776T667 772H440Q438 772 433 771T427 762V202Q427 158 449 131T506 87T586 66T675 60Q684 59 688 47T693 30Q693 28 693 23T691
13T685 4T675 0H50Q44 2 42 13T40 30Z" />
<glyph unicode="g" glyph-name="g" horiz-adv-x="1224" d="M582 943Q678 943 754 918T881 845Q944 847 1001 852T1125 857Q1148 857 1162 856T1185 851T1197 842T1203 828Q1210 803 1213 783T1216 742Q1216 725 1204 720T1153 714H970Q984 691 997 660T1011 581Q1011
512 980 447T889 331T743 251T545 220Q511 220 490 222T446 231Q432 219 411 210T370 188T336 161T322 121Q322 79 395 61T633 41Q758 40 860 34T1036 3T1149 -76T1189 -226Q1189 -266 1170 -312T1113 -405T1016 -493T880 -568T702 -620T484 -640Q379 -640 301
-620T172 -565T96 -488T70 -398Q70 -363 84 -335T121 -284T172 -240T230 -198T286 -153T333 -99Q280 -92 237 -74T163 -32T115 20T98 78Q98 105 112 125T150 160T204 189T266 214Q286 222 308 231T355 258Q236 306 175 383T114 561Q114 641 150 711T249 832T397
913T582 943ZM298 -316Q298 -358 323 -400T392 -477T495 -532T621 -554Q691 -554 757 -531T874 -468T956 -378T987 -270Q987 -237 977 -212T948 -170T906 -143T856 -131Q835 -129 786 -128T676 -124Q639 -123 603 -123T537 -121T482 -119T443 -116Q424 -138 399
-157T352 -199T314 -250T298 -316ZM771 559Q771 636 755 696T710 798T640 861T552 883Q523 883 489 872T424 830T374 746T354 610Q354 557 366 499T404 392T473 312T575 280Q620 280 656 300T717 357T757 445T771 559Z" />
<glyph unicode="h" glyph-name="h" horiz-adv-x="1276" d="M572 30Q572 24 570 13T562 0H40Q34 2 32 13T30 30Q30 35 33 46T40 60Q53 66 77 69T125 83T167 116T185 183V1364Q185 1388 172 1401T139 1422T96 1433T52 1444Q46 1446 43 1449T39 1464Q39 1469 42 1474T54
1484L385 1639Q389 1641 393 1643T400 1645Q417 1645 417 1621V774Q417 770 418 760T424 750Q431 750 434 753T443 763Q472 796 502 825T568 877T649 913T754 926Q816 926 876 912T984 858T1061 749T1091 569V183Q1091 139 1109 117T1151 84T1199 70T1236 60Q1240
58 1243 47T1246 30Q1246 24 1244 13T1236 0H714Q708 2 706 13T704 30Q704 35 707 46T714 60Q727 66 751 69T799 83T841 116T859 183V527Q859 585 856 636T836 725T780 784T671 806Q635 806 591 789T508 742T443 674T417 593V183Q417 139 435 117T477 84T525 70T562
60Q566 58 569 47T572 30Z" />
<glyph unicode="i" glyph-name="i" horiz-adv-x="652" d="M70 0Q64 2 62 13T60 31Q60 36 63 47T70 60Q83 66 107 69T155 83T197 116T215 183V663Q215 687 202 700T169 721T126 732T82 743Q76 745 73 748T69 763Q69 768 72 773T84 783L415 939Q419 941 423 943T430
945Q447 945 447 921V183Q447 139 465 117T507 84T555 70T592 60Q596 58 599 47T602 31Q602 25 600 14T592 0H70ZM172 1307Q172 1371 210 1409T312 1447Q376 1447 414 1409T452 1307Q452 1243 414 1206T312 1168Q248 1168 210 1205T172 1307Z" />
<glyph unicode="j" glyph-name="j" horiz-adv-x="653" d="M415 937Q419 939 423 941T430 943Q447 943 447 919V-107Q447 -233 411 -328T309 -489T150 -587T-58 -620Q-94 -620 -128 -609T-188 -580T-231 -539T-247 -492Q-247 -477 -242 -461T-227 -433T-202 -412T-167
-404Q-161 -404 -155 -405T-134 -415T-94 -441T-26 -492Q-13 -503 0 -509T28 -518T62 -522T109 -523Q144 -523 165 -499T197 -439T211 -365T215 -297V661Q215 685 202 698T169 719T126 730T82 741Q76 743 73 746T69 761Q69 766 72 771T84 781L415 937ZM156 1307Q156
1371 194 1409T296 1447Q360 1447 398 1409T436 1307Q436 1243 398 1206T296 1168Q232 1168 194 1205T156 1307Z" />
<glyph unicode="k" glyph-name="k" horiz-adv-x="1278" d="M586 30Q586 16 584 8T576 0H54Q44 2 44 30Q44 56 54 60Q67 66 91 69T139 83T181 116T199 183V1363Q199 1387 186 1400T153 1421T110 1432T66 1443Q60 1445 57 1448T53 1463Q53 1468 56 1473T68 1483L399
1639Q403 1641 407 1643T414 1645Q431 1645 431 1621V628Q431 598 442 591T471 584Q493 584 526 597T596 632T671 679T738 730T787 777T806 811Q806 831 787 838T745 849T702 861T683 887Q683 901 696 910T724 920H1145Q1190 920 1190 897Q1190 881 1167 871T1110
850T1039 827T973 791L686 567Q686 559 693 550T705 535L1086 133Q1112 106 1143 91T1203 66T1249 49T1268 30Q1268 18 1266 9T1252 0H707Q700 0 699 8T697 30Q697 55 707 60Q717 65 728 68T747 76T761 91T767 117Q767 128 753 146T724 181L445 477Q445 478 444
479H443Q437 479 434 464T431 430V183Q431 139 449 117T491 84T539 70T576 60Q586 56 586 30Z" />
<glyph unicode="l" glyph-name="l" horiz-adv-x="597" d="M562 30Q562 24 560 13T552 0H30Q24 2 22 13T20 30Q20 35 23 46T30 59Q43 65 67 68T115 82T157 115T175 182V1348Q175 1372 162 1385T129 1406T86 1417T42 1428Q29 1433 29 1456Q29 1461 32 1469T44 1483L375
1639Q379 1641 384 1643T395 1645Q403 1645 405 1640T407 1621V182Q407 138 425 116T467 83T515 69T552 59Q556 57 559 46T562 30Z" />
<glyph unicode="m" glyph-name="m" horiz-adv-x="1884" d="M397 970Q401 972 405 974T412 976Q429 976 429 952V786Q430 780 437 780Q443 780 451 784Q496 808 539 833T625 880T713 914T802 927Q847 927 878 916T930 888T964 850T988 810Q989 807 992 803T999
793T1008 785T1018 781Q1032 782 1047 790Q1144 839 1205 866T1308 907T1378 924T1437 927Q1496 927 1538 906T1610 851T1656 772T1683 681T1695 589T1698 506Q1698 471 1697 441T1694 376T1691 295T1689 186Q1689 156 1700 136T1728 103T1767 84T1808 73T1844
67T1870 60Q1874 58 1877 47T1880 31Q1880 25 1878 14T1870 0H1312Q1306 2 1304 13T1302 31Q1302 36 1305 47T1312 60Q1325 66 1349 69T1397 84T1438 120T1456 192V194Q1461 225 1462 262T1464 345Q1464 367 1464 386T1463 426T1463 471T1462 526Q1462 575 1458
624T1436 712T1384 775T1290 800Q1280 800 1268 798T1235 788T1179 765T1087 726Q1079 721 1071 715T1061 698V186Q1061 141 1079 118T1121 84T1169 70T1206 60Q1210 58 1213 47T1216 31Q1216 25 1214 14T1206 0H684Q678 2 676 13T674 31Q674 36 677 47T684 60Q697
66 721 69T769 83T811 117T829 186V622Q829 661 823 693T800 749T753 786T673 799Q650 799 615 787T544 755T476 715T429 676V186Q429 141 447 118T489 84T537 70T574 60Q578 58 581 47T584 31Q584 25 582 14T574 0H52Q46 2 44 13T42 31Q42 36 45 47T52 60Q65 66
89 69T137 83T179 116T197 184V693Q197 717 184 730T151 751T108 762T64 773Q58 775 55 778T51 793Q51 798 54 803T66 813L397 970Z" />
<glyph unicode="n" glyph-name="n" horiz-adv-x="1316" d="M407 970Q411 972 415 974T422 976Q439 976 439 952V796Q442 786 447 786Q452 786 455 786T463 790Q527 823 571 845T648 883T706 907T758 920T815 926T891 927Q940 927 976 906T1036 851T1076 772T1100
681T1111 589T1114 506Q1114 471 1113 441T1110 376T1107 295T1105 186Q1105 156 1116 136T1144 103T1183 84T1224 73T1260 67T1286 60Q1290 58 1293 47T1296 31Q1296 25 1294 14T1286 0H728Q722 2 720 13T718 31Q718 36 721 47T728 60Q741 66 762 69T806 85T847
121T872 194Q874 209 875 222T878 248T879 278T880 315Q880 360 879 411T878 525Q878 574 874 622T852 708T800 770T706 794Q685 794 669 792T629 780T567 753T465 704Q457 699 449 693T439 676V186Q439 141 457 118T499 84T547 70T584 60Q588 58 591 47T594 31Q594
25 592 14T584 0H62Q56 2 54 13T52 31Q52 36 55 47T62 60Q75 66 99 69T147 83T189 117T207 186V694Q207 718 194 731T161 752T118 763T74 774Q68 776 65 779T61 794Q61 799 64 804T76 814L407 970Z" />
<glyph unicode="o" glyph-name="o" horiz-adv-x="1197" d="M75 467Q75 561 116 647T228 799T391 904T587 943Q695 943 792 906T962 805T1079 653T1122 463Q1122 359 1083 270T973 114T807 11T596 -27Q483 -27 388 11T223 116T114 273T75 467ZM331 530Q331 476
339 419T363 307T403 204T462 120T539 62T636 41Q695 41 737 71T807 151T848 261T861 383Q861 432 852 486T825 594T781 697T721 783T644 843T551 865Q495 865 454 835T385 756T345 648T331 530Z" />
<glyph unicode="p" glyph-name="p" horiz-adv-x="1166" d="M367 970Q371 972 375 974T382 976Q399 976 399 952V846Q399 841 403 838T411 835Q416 835 420 837T429 842Q469 866 501 882T562 908T622 922T692 926Q777 926 844 886T959 780T1031 632T1056 467Q1056
406 1039 345T992 230T920 128T828 47T720 -7T601 -27Q556 -27 514 -21T420 -4Q403 -4 402 -16T399 -41V-448Q399 -477 411 -496T443 -528T486 -547T532 -558T572 -564T599 -571Q609 -575 609 -584Q609 -598 599 -600H22Q12 -598 12 -584Q12 -575 22 -571Q35 -565
59 -562T107 -548T149 -515T167 -448V694Q167 718 154 731T121 752T78 763T34 774Q28 776 25 779T21 794Q21 799 24 804T36 814L367 970ZM603 813Q549 813 505 798T414 749Q412 748 410 746T405 741L399 735V201Q399 198 400 185T403 160Q406 139 429 122T481 92T540
73T588 66Q654 66 699 90T773 154T813 249T826 364Q826 411 821 462T806 564T778 659T736 738T678 792T603 813Z" />
<glyph unicode="q" glyph-name="q" horiz-adv-x="1172" d="M1009 -448Q1009 -492 1027 -514T1069 -547T1117 -561T1154 -571Q1164 -575 1164 -584Q1164 -598 1154 -600H542Q532 -598 532 -584Q532 -575 542 -571Q551 -567 571 -565T618 -558T672 -548T723 -529T762
-497T777 -448V70Q777 75 776 75T773 76Q768 76 755 68Q702 38 668 20T604 -9T546 -23T475 -27Q398 -27 330 10T211 110T130 255T100 428Q100 544 143 639T259 802T425 907T619 944Q685 944 744 928T860 880H867Q880 880 899 891T937 915T971 940T993 952H1003Q1005
952 1007 952T1009 946V-448ZM777 626Q777 753 724 810T580 867Q531 867 486 834T405 742T348 599T327 415Q327 340 351 281T414 180T498 116T590 94Q656 94 721 122Q742 131 759 150T777 182V626Z" />
<glyph unicode="r" glyph-name="r" horiz-adv-x="823" d="M407 939Q411 941 415 943T422 945Q439 945 439 921V751Q439 748 439 744T445 739Q450 739 453 742T459 749Q477 773 499 802T547 858T600 901T653 919Q671 919 700 909T756 886T803 858T823 834Q823 825
814 801T792 751T763 707T734 687H732Q714 693 696 701T658 718T620 732T580 738Q550 738 524 726T480 694T450 650T439 604V182Q439 153 451 134T483 102T526 83T572 72T612 66T639 59Q649 55 649 31Q649 2 639 0H62Q52 2 52 31Q52 55 62 59Q75 65 99 68T147 82T189
115T207 182V663Q207 687 194 700T161 721T118 732T74 743Q68 745 65 748T61 763Q61 768 64 773T76 783L407 939Z" />
<glyph unicode="s" glyph-name="s" horiz-adv-x="758" d="M197 6Q188 6 181 1T168 -10T155 -22T141 -27H105Q103 -27 99 2T91 71T83 155T80 228Q80 244 91 248T116 253Q123 253 131 248T147 236T161 220T170 206Q187 169 204 139T243 88T295 56T367 44Q399 44
419 55T450 84T464 125T468 173Q468 223 438 257T364 322T267 383T170 455T95 552T65 692Q65 740 95 785T173 866T280 922T399 943Q430 943 461 938T519 925T564 911T588 901Q595 896 599 886T605 852T607 791T608 690Q608 673 596 666T571 658Q560 658 550 662T536
675Q524 706 509 737T475 794T429 835T369 851Q349 851 329 846T293 827T268 787T258 723Q258 689 289 660T368 602T470 538T573 460T651 359T683 223Q683 165 653 119T576 40T472 -9T359 -27Q331 -27 303 -22T252 -11T214 1T197 6Z" />
<glyph unicode="t" glyph-name="t" horiz-adv-x="723" d="M151 771H76Q62 771 54 778T45 793Q45 798 47 804T52 812Q72 825 95 842T142 879T187 917T226 952Q236 963 253 985T293 1028T342 1066T395 1083Q401 1083 409 1079T417 1069Q417 1062 414 1048T405 1015T394
977T383 938Q383 930 385 925T399 919H654Q670 919 676 914T685 899Q687 894 689 879T693 845T696 808T698 777Q698 771 690 771H389Q384 771 384 769T383 762V265Q383 233 391 209T411 169T440 145T472 137Q518 137 547 150T597 180T634 209T670 223Q684 223 686
212T689 195Q689 182 686 175T680 163Q679 161 669 146T642 110T601 65T546 21T481 -13T406 -27Q352 -27 305 -7T224 46T171 123T151 212V771Z" />
<glyph unicode="u" glyph-name="u" horiz-adv-x="1200" d="M164 730Q161 759 138 779T87 806Q80 808 72 808T56 810T45 815T40 828Q40 836 42 842T56 851L361 939Q367 941 373 942T386 943Q396 943 396 926V251Q396 217 411 190T452 143T509 114T575 104Q599 104
625 112T675 132T720 161T754 196V731Q751 760 728 780T677 807Q670 809 662 809T646 811T635 816T630 829Q630 837 632 843T646 852L951 939Q957 941 963 942T976 943Q986 943 986 934V244Q991 200 1011 181T1076 162L1134 166Q1138 166 1139 153T1140 133Q1140
131 1138 120T1125 104L821 -21Q819 -22 811 -24T802 -27Q795 -27 794 -19T792 -2V94Q789 98 782 98Q780 98 778 98T776 96L616 18Q594 10 575 3T538 -12T498 -23T452 -27Q410 -27 360 -19T266 8T193 56T164 126V730V730Z" />
<glyph unicode="v" glyph-name="v" horiz-adv-x="1130" d="M479 -27Q471 -27 466 -16T457 4L186 739Q169 785 137 819T59 869Q52 871 42 872T23 875T7 882T0 898Q0 908 5 916T22 925H548Q554 925 556 915T558 901Q558 887 547 883T519 877T483 876T447 872T419
855T408 816Q408 813 411 804T414 792L613 248Q615 243 619 234T632 224Q636 224 640 228T648 239T653 250T656 258Q703 378 735 460T788 598T820 684T837 733T843 757T844 772Q844 807 822 829T768 864Q759 866 746 866T720 868T698 876T688 896Q688 904 696 912T712
920H1111Q1117 919 1118 913T1120 895Q1120 888 1118 885T1109 879T1088 874T1052 868Q1030 864 1014 848T984 809T960 764T941 721Q873 547 827 426T749 225T701 101T674 34T663 7T661 2Q658 -5 653 -16T639 -27H479V-27Z" />
<glyph unicode="w" glyph-name="w" horiz-adv-x="1723" d="M481 -27Q473 -27 468 -16T459 4L194 721Q177 767 145 801T67 851Q60 853 50 855T31 862T15 872T8 890Q8 900 14 910T32 920H557Q563 920 564 908T565 893Q565 879 554 874T527 867T492 864T457 857T430
838T419 798Q419 795 420 786T421 774L614 249Q616 244 620 235T633 225Q637 225 641 229T649 240T654 251T657 259L831 721Q814 767 782 801T704 851Q697 853 687 855T668 862T652 872T645 890Q645 900 651 910T669 920H1195Q1201 920 1202 908T1203 893Q1203
879 1192 874T1165 867T1130 864T1095 857T1068 838T1057 798Q1057 795 1058 786T1059 774L1223 328Q1225 323 1229 314T1242 304Q1246 304 1250 308T1258 319T1264 330T1267 338L1416 729Q1420 740 1420 753Q1420 777 1410 795T1383 826T1350 845T1318 851Q1298
851 1279 861T1259 893Q1259 901 1266 910T1281 920H1682Q1690 918 1691 908T1693 892Q1693 885 1691 880T1682 871T1661 863T1625 855Q1603 851 1587 835T1557 796T1533 751T1514 708Q1447 533 1401 413T1324 215T1277 94T1252 31T1243 7T1241 2Q1238 -5 1233
-16T1220 -27H1118Q1110 -27 1105 -16T1096 4L879 590L652 2Q649 -5 644 -16T630 -27H481V-27Z" />
<glyph unicode="x" glyph-name="x" horiz-adv-x="1111" d="M491 920Q497 920 498 913T499 903Q498 895 483 892T450 883T417 866T402 833Q402 824 404 815T411 801L542 640Q550 631 558 621T575 610Q580 610 588 620L705 760Q718 775 724 786T730 817Q730 847
714 858T679 875T643 886T627 908Q627 912 628 916T638 920H971Q977 920 978 918T979 903Q979 899 978 893T971 884Q942 876 921 867T882 844T848 814T811 772L628 554Q625 549 625 547T624 538L984 91Q994 78 1011 71T1045 56T1074 41T1086 18Q1086 9 1084 6T1074
0H609Q601 0 600 8T599 19Q599 32 615 34T652 40T689 52T706 88Q706 102 698 113T681 133L509 335Q501 346 497 352T478 358Q466 358 459 348T443 329L296 154Q283 139 279 124T275 99Q275 81 288 68T321 46T359 33T390 29Q394 29 395 24T397 14Q397 9 396 5T390
0H49Q38 0 36 4T33 18Q33 27 49 37T85 56T126 76T156 98L431 431L105 841Q97 850 83 857T53 871T28 885T17 900Q19 920 41 920H491Z" />
<glyph unicode="y" glyph-name="y" horiz-adv-x="1165" d="M331 -620Q313 -620 296 -614T265 -597T243 -572T234 -539Q234 -511 248 -496T284 -471T328 -454T367 -435Q378 -427 390 -417T413 -383L544 -78L161 721Q144 767 112 801T34 851Q27 853 17 855T-2 862T-18
872T-25 890Q-25 900 -19 910T-1 920H527Q533 920 534 908T535 893Q535 879 524 874T495 866T459 863T422 856T394 837T382 798Q382 795 386 786T391 774L639 243Q641 238 646 229T659 219Q663 219 667 223T674 234T679 245T682 253Q728 371 759 453T811 589T842
673T857 720T863 744T864 759Q866 794 843 817T788 851Q779 854 766 855T740 860T718 871T708 893Q708 901 715 910T730 920H1129Q1137 920 1138 909T1140 892Q1140 885 1138 880T1129 871T1108 863T1072 855Q1051 851 1034 835T1004 797T980 751T961 708L454 -548Q446
-567 431 -580T398 -603T362 -616T331 -620Z" />
<glyph unicode="z" glyph-name="z" horiz-adv-x="1000" d="M62 20Q62 28 62 32T68 45L561 716Q571 730 578 740T586 765Q587 768 573 769T538 772T494 773T455 774H290Q256 774 233 759T194 722T166 673T146 624T129 586T108 571Q105 571 94 571T83 575L143 928Q145
937 158 938T179 940Q186 940 192 933T206 918T223 902T245 895Q260 895 284 894T346 891T437 888T564 887Q594 887 634 887T721 889T818 891T916 893Q922 891 924 884T926 870Q926 868 921 854T910 834L404 146Q400 140 397 135T393 123Q393 118 393 117T399 115H744Q771
115 792 126T832 156T866 194T895 232T921 261T947 273Q953 273 964 270T976 261L893 46Q891 42 888 34T881 19T870 6T855 0H84Q62 0 62 20Z" />
<glyph unicode="{" glyph-name="braceleft" horiz-adv-x="1134" d="M206 702Q206 731 225 747T273 764Q327 764 358 797T389 909Q389 967 377 1024T349 1137T322 1251T309 1368Q309 1437 333 1491T400 1586T496 1655T611 1701T733 1727T851 1735Q891 1735 908
1723T926 1686Q926 1668 921 1657T905 1639T883 1631T855 1627Q795 1624 742 1610T648 1566T585 1491T561 1380Q561 1321 565 1264T581 1139Q588 1094 593 1052T598 965Q598 933 591 905T573 852T549 809T524 778Q516 770 505 761T485 741T468 721T461 702Q461
693 469 682T488 658T510 636T527 619Q538 606 550 587T573 545T591 493T598 434Q598 402 593 356T577 243Q569 189 565 132T561 25Q561 -32 575 -75T614 -151T670 -206T737 -241T807 -260T873 -266Q908 -266 917 -281T926 -324Q926 -348 913 -361T873 -375Q825
-375 765 -369T642 -346T519 -302T413 -232T338 -130T309 8Q309 63 321 119T349 232T376 343T389 453Q389 491 383 525T362 584T324 626T267 645Q241 651 224 666T206 702Z" />
<glyph unicode="|" glyph-name="bar" horiz-adv-x="491" d="M150 1645H341V-35H150V1645Z" />
<glyph unicode="}" glyph-name="braceright" horiz-adv-x="1134" d="M928 702Q928 682 911 667T867 645Q833 642 810 626T773 585T752 525T745 453Q745 399 757 344T785 232T812 120T825 8Q825 -71 797 -130T722 -231T615 -302T493 -346T370 -368T261 -375Q235
-375 222 -362T208 -324Q208 -296 217 -281T261 -266Q307 -266 362 -253T463 -206T541 -117T573 25Q573 75 569 132T557 243Q548 308 542 356T536 434Q536 465 542 493T559 544T582 587T605 618Q611 625 622 635T645 657T665 681T673 702Q673 710 666 720T649 740T629
760T612 777Q600 790 587 809T562 852T544 904T536 965Q536 1009 541 1051T553 1139Q564 1206 568 1263T573 1380Q573 1445 548 1491T480 1568T384 1612T273 1626Q237 1626 223 1642T208 1686Q208 1711 220 1723T273 1735Q336 1735 401 1727T528 1702T644 1656T738
1587T801 1492T825 1368Q825 1309 813 1252T785 1138T758 1024T745 909Q745 886 750 864T770 822T808 788T869 764Q893 761 910 745T928 702Z" />
<glyph unicode="~" glyph-name="asciitilde" horiz-adv-x="1109" d="M1018 811Q1018 722 998 653T942 535T862 462T765 436Q708 436 659 459T562 515Q518 545 486 565T429 598T386 615T350 620Q337 620 323 612T297 583T278 528T269 440H90Q90 529 110 598T166
716T246 789T343 815Q371 815 401 810T468 789T553 746T663 675Q686 659 711 645T759 631Q775 631 789 640T815 671T833 727T840 811H1018Z" />
<glyph unicode="&#xa0;" glyph-name="nbspace" horiz-adv-x="550" />
<glyph unicode="&#xa1;" glyph-name="exclamdown" horiz-adv-x="544" d="M328 436Q326 464 312 481T272 499Q246 499 232 482T215 436L141 -527V-580Q141 -602 152 -611T182 -620Q187 -620 194 -620T212 -621Q225 -622 242 -622T272 -622Q289 -622 310 -622T349
-620Q361 -620 377 -614T402 -585V-527L328 436ZM130 794Q130 765 141 739T172 694T217 663T272 652Q302 652 328 663T373 695T403 741T414 795Q414 824 403 849T373 894T327 925T272 936Q241 936 215 925T170 895T141 850T130 794Z" />
<glyph unicode="&#xa2;" glyph-name="cent" horiz-adv-x="988" d="M90 423Q91 562 130 658T236 816T391 907T579 942L642 1120H792L727 936Q760 931 792 923T851 899T894 861T910 805Q910 781 901 767T876 744T839 732T794 729Q772 729 755 734T725 749T700 771T677
796L452 162Q483 140 522 129T612 117Q640 117 667 126T720 150T768 186T810 229Q820 241 829 249T859 257Q883 257 900 245T918 218Q918 214 917 208T906 189Q868 141 824 101T730 33T623 -10T500 -26Q443 -26 391 -8L267 -359H118L266 60Q226 92 194 133T138
222T103 320T90 423ZM332 485Q332 436 337 392T354 309L547 853Q481 849 440 813T374 723T341 606T332 485Z" />
<glyph unicode="&#xa3;" glyph-name="sterling" horiz-adv-x="1110" d="M212 623Q186 623 170 631T153 654V678Q153 692 169 701T212 710H351Q332 747 315 785T284 862T262 941T254 1025Q254 1106 284 1176T367 1298T488 1379T633 1409Q709 1409 779 1390T904
1337T992 1258T1025 1162Q1025 1148 1019 1133T1001 1106T972 1085T933 1077Q906 1077 887 1084T852 1106T824 1141T797 1188Q778 1222 760 1248T720 1291T672 1317T612 1326Q582 1326 552 1313T498 1276T459 1221T444 1153Q444 1099 453 1053T478 965T513 885T553
810Q567 783 579 761T605 710H766Q792 710 808 701T825 678V654Q825 640 809 632T766 623H640Q652 586 658 550T665 473Q665 449 663 420T657 359T646 298T630 241Q651 221 676 202T727 167T779 143T829 133Q867 133 895 157T943 211T973 268T983 301H1074Q1072
275 1065 240T1044 169T1006 97T947 35T864 -10T753 -27Q716 -27 684 -16T624 11T574 46T537 81Q519 61 496 42T446 7T387 -17T320 -27Q267 -27 229 -13T165 25T128 80T116 144Q116 188 136 224T190 287T267 328T357 343Q399 343 429 336T481 321V326Q481 366 474
405T454 482T427 555T396 623H212ZM235 140Q235 123 240 107T255 77T278 56T309 48Q336 48 359 63T401 100T432 144T451 181Q441 193 428 206T400 231T365 249T325 257Q307 257 291 248T262 222T243 185T235 140Z" />
<glyph unicode="&#xa4;" glyph-name="currency" horiz-adv-x="1049" d="M230 493Q203 537 188 581T172 682Q172 743 189 787T240 877L41 1077L140 1176L340 975Q363 991 384 1003T428 1023T476 1035T531 1039Q586 1039 630 1024T720 980L917 1177L1015 1079L818
882Q835 859 849 837T872 790T887 740T893 682Q893 622 875 576T827 485L1017 294L919 196L728 387Q682 355 636 338T531 321Q468 321 420 340T324 392Q305 373 279 347T226 293T173 240T130 198L32 296L230 493ZM320 682Q320 635 335 596T378 528T445 484T531
468Q578 468 617 483T685 527T729 595T745 682Q745 729 730 768T686 834T618 877T531 893Q484 893 445 878T379 835T336 768T320 682Z" />
<glyph unicode="&#xa5;" glyph-name="yen" horiz-adv-x="1634" d="M284 515Q263 515 263 540V616Q263 641 284 641H623L300 1158Q283 1185 264 1212T221 1264T170 1307T110 1334Q105 1335 94 1337T71 1342T48 1346T32 1349Q22 1350 13 1361T4 1382Q4 1384 4 1389T6
1398T11 1406T19 1410H698Q709 1410 712 1400T715 1382Q715 1372 714 1361T702 1350Q675 1348 651 1346T610 1337T583 1314T573 1272Q573 1248 585 1229L890 739Q901 722 904 718T916 714Q923 714 928 722T942 743L1183 1152Q1197 1175 1211 1203T1226 1260Q1226
1288 1219 1304T1196 1330T1160 1343T1110 1350Q1099 1351 1097 1362T1095 1382Q1095 1389 1097 1399T1112 1410H1615Q1623 1410 1626 1399T1629 1382Q1629 1372 1623 1365T1607 1354T1587 1347T1567 1342Q1517 1331 1481 1306T1409 1242Q1404 1237 1395 1226T1384
1213L1051 641H1396Q1406 641 1411 634T1417 616V540Q1417 529 1411 522T1396 515H997V400H1399Q1407 398 1412 392T1417 375V299Q1417 288 1411 281T1396 274H997V195Q997 135 1028 102T1138 61Q1149 60 1166 60T1195 60Q1200 60 1201 57T1203 52V8Q1203 6 1202
3T1195 0H514Q509 0 508 3T506 8V52Q506 54 507 57T514 60Q525 60 542 60T571 61Q650 69 681 102T712 195V274H284Q263 274 263 299V375Q263 400 284 400H712V494Q712 500 709 504L702 515H284V515Z" />
<glyph unicode="&#xa6;" glyph-name="brokenbar" horiz-adv-x="841" d="M511 1645V895H330V1645H511ZM511 717V-35H330V717H511Z" />
<glyph unicode="&#xa7;" glyph-name="section" horiz-adv-x="1164" d="M481 1119Q507 1074 545 1022T627 910Q692 823 764 721T896 504T995 264T1034 7Q1034 -51 1019 -116T973 -245T894 -370T781 -477T631 -556T442 -595Q415 -595 381 -589T310 -571T240 -543T180
-505T137 -460T120 -408Q120 -395 123 -378T140 -346T178 -319T249 -308Q274 -308 296 -320T338 -350T380 -390T423 -429T471 -460T526 -472Q555 -472 591 -461T658 -429T710 -376T731 -306Q731 -283 722 -254T699 -197T671 -143T645 -102Q597 -31 553 31T466 154Q384
268 315 369T196 570T118 777T90 1006Q90 1060 106 1126T155 1261T236 1393T349 1507T493 1587T670 1617Q696 1617 730 1611T802 1594T875 1567T939 1529T986 1483T1004 1430Q1004 1418 1001 1401T985 1368T946 1341T875 1330Q850 1330 828 1342T786 1372T745 1412T702
1451T654 1482T599 1494Q570 1494 534 1483T467 1451T415 1400T394 1329Q394 1305 401 1277T421 1221T449 1168T479 1122L481 1119ZM371 1036Q359 1052 347 1074T322 1122T300 1174T280 1227Q255 1170 243 1111T231 991Q231 942 239 894T266 799Q279 744 311 678T387
539T481 392T581 246Q628 178 673 111T754 -12Q764 -29 776 -52T800 -102T823 -157T844 -214Q870 -165 879 -113T888 7Q888 40 886 67T879 120T870 171T858 224Q846 277 816 339T744 469T656 606T564 740Q507 821 455 899T371 1036Z" />
<glyph unicode="&#xa8;" glyph-name="dieresis" horiz-adv-x="780" d="M170 1092Q141 1092 116 1102T73 1131T44 1173T33 1227Q33 1256 43 1281T72 1325T116 1355T170 1366Q199 1366 224 1355T267 1326T296 1282T307 1227Q307 1198 297 1174T268 1131T224 1103T170
1092ZM609 1092Q580 1092 556 1102T512 1131T483 1173T472 1227Q472 1256 482 1281T512 1325T555 1355T609 1366Q639 1366 664 1355T707 1326T735 1282T746 1227Q746 1198 736 1174T707 1131T664 1103T609 1092Z" />
<glyph unicode="&#xa9;" glyph-name="copyright" horiz-adv-x="1717" d="M90 723Q90 828 117 925T194 1107T313 1261T467 1380T649 1457T851 1484Q956 1484 1053 1457T1235 1380T1389 1261T1508 1107T1585 925T1612 723Q1612 618 1585 521T1508 339T1389 185T1235
66T1053 -11T851 -38Q746 -38 649 -11T467 66T313 185T194 339T117 521T90 723ZM226 723Q226 637 248 557T311 408T409 281T535 184T685 121T851 98Q937 98 1017 120T1166 183T1293 281T1390 407T1453 557T1476 723Q1476 809 1454 889T1391 1038T1293 1165T1167
1262T1017 1325T851 1348Q765 1348 685 1326T536 1263T409 1165T312 1039T249 889T226 723ZM368 711Q368 784 385 848T432 967T506 1065T601 1139T714 1186T839 1202Q895 1202 946 1192T1052 1167Q1061 1164 1071 1160T1089 1153T1105 1147T1116 1144Q1117 1144
1124 1146T1134 1149H1162Q1169 1149 1169 1138V926Q1169 922 1166 921T1154 919Q1153 919 1146 919T1136 923Q1135 925 1132 931T1124 943T1117 954T1113 962Q1090 1011 1063 1044T1004 1099T933 1129T849 1139Q792 1139 748 1125T671 1084T616 1022T579 942T559
850T552 748Q552 693 559 639T583 536T624 444T686 372T770 323T878 305Q929 305 973 322T1054 367T1119 432T1168 509Q1169 512 1170 512T1175 513H1206Q1208 513 1210 512T1212 505Q1212 503 1210 495T1204 480L1121 283Q1120 281 1118 280T1113 278Q1099 278
1093 280T1081 283Q1063 283 1034 277T970 262T900 247T837 240Q774 240 715 255T603 298T508 368T434 462T385 576T368 711Z" />
<glyph unicode="&#xaa;" glyph-name="ordfeminine" horiz-adv-x="682" d="M326 756Q303 739 273 731T211 722Q127 722 84 760T40 862Q40 899 57 925T107 972T188 1009T300 1043Q335 1052 356 1062T394 1082Q405 1089 407 1093T409 1102V1221Q409 1267 384 1297T310
1328Q270 1328 244 1302T217 1230Q217 1226 218 1216T220 1204Q218 1201 197 1194T149 1179T98 1164T66 1156Q59 1156 57 1163T55 1179Q55 1219 79 1256T143 1323T236 1370T344 1388Q393 1388 432 1375T498 1340T540 1289T555 1227V900Q555 883 568 869T603 854Q616
854 626 858T643 869T656 879T666 884Q671 884 672 880T673 871Q673 860 670 848T659 830Q626 805 600 785T552 751T514 729T482 721Q461 721 447 736T425 770T413 804T407 818L326 756ZM200 878Q200 860 207 849T225 831T252 822T283 819Q297 819 318 826T360
846T394 873T409 904V1017Q409 1026 406 1026L242 950Q232 943 225 937T212 924T203 905T200 878Z" />
<glyph unicode="&#xab;" glyph-name="guillemotleft" horiz-adv-x="893" d="M448 927L260 552L450 179H350L68 552L350 927H448ZM781 927L593 552L783 179H683L401 552L683 927H781Z" />
<glyph unicode="&#xac;" glyph-name="logicalnot" horiz-adv-x="1049" d="M972 719V146H785V532H68V719H972Z" />
<glyph unicode="&#xad;" glyph-name="uni00AD" horiz-adv-x="973" d="M888 608V411H85V608H888Z" />
<glyph unicode="&#xae;" glyph-name="registered" horiz-adv-x="1702" d="M90 723Q90 828 117 925T194 1107T313 1261T467 1380T649 1457T851 1484Q956 1484 1053 1457T1235 1380T1389 1261T1508 1107T1585 925T1612 723Q1612 618 1585 521T1508 339T1389 185T1235
66T1053 -11T851 -38Q746 -38 649 -11T467 66T313 185T194 339T117 521T90 723ZM226 723Q226 637 248 557T311 408T409 281T535 184T685 121T851 98Q937 98 1017 120T1166 183T1293 281T1390 407T1453 557T1476 723Q1476 809 1454 889T1391 1038T1293 1165T1167
1262T1017 1325T851 1348Q765 1348 685 1326T536 1263T409 1165T312 1039T249 889T226 723ZM415 336Q415 337 416 339T420 341Q424 341 431 342T447 344T463 347T474 349Q508 357 521 375T535 419V1029Q535 1059 523 1076T494 1102T462 1113T441 1115H418Q415 1115
414 1117T413 1120V1146Q413 1147 413 1148T418 1151Q418 1151 420 1151T429 1151T448 1152T484 1153Q517 1153 554 1154T630 1157T706 1159T777 1160H837Q884 1160 933 1144T1023 1097T1088 1018T1114 910Q1114 870 1103 839T1073 785T1028 743T971 711L1153 423Q1177
386 1208 356T1280 313Q1285 312 1286 310T1287 305Q1287 296 1282 293T1267 290Q1242 290 1210 293T1146 304T1084 324T1035 354Q1016 370 996 396T956 451T917 513T879 576T844 633T813 678L720 685Q719 685 715 685T709 684Q707 682 707 681T706 676V421Q706
405 710 393T724 372T750 358T789 349Q792 349 799 348T814 345T830 342T843 341Q847 341 847 339T848 336V310Q848 309 847 307T843 305H420Q417 305 416 313T415 329V336ZM707 745Q708 740 710 736T718 732Q724 731 734 730T765 728Q817 728 851 744T905 787T932
850T940 924Q940 964 928 1000T893 1062T839 1104T769 1120Q761 1120 756 1120T747 1120T737 1119T721 1118Q717 1118 712 1117T706 1108V763L707 745Z" />
<glyph unicode="&#xaf;" glyph-name="overscore" horiz-adv-x="739" d="M26 1342H713V1173H26V1342Z" />
<glyph unicode="&#xb0;" glyph-name="degree" horiz-adv-x="1099" d="M295 1150Q295 1203 315 1249T369 1329T450 1384T549 1404Q602 1404 648 1384T728 1330T783 1249T803 1150Q803 1097 783 1051T729 970T648 915T549 895Q496 895 450 915T370 969T315 1050T295
1150ZM418 1148Q418 1121 428 1098T456 1056T498 1028T549 1018Q576 1018 600 1028T641 1056T669 1097T680 1148Q680 1175 670 1199T642 1241T600 1270T549 1281Q522 1281 498 1271T457 1242T429 1199T418 1148Z" />
<glyph unicode="&#xb1;" glyph-name="plusminus" horiz-adv-x="1049" d="M68 814H431V1177H618V814H981V627H618V264H431V627H68V814ZM68 162H981V-25H68V162Z" />
<glyph unicode="&#xb2;" glyph-name="twosuperior" horiz-adv-x="687" d="M74 551Q54 551 51 554T48 575Q48 585 54 595T71 616Q100 650 139 684T212 753Q258 798 303 844T383 936T441 1027T463 1115Q463 1148 450 1177T416 1230T367 1266T310 1280Q279 1280 252
1270T202 1241T165 1199T142 1146Q139 1132 130 1119T92 1105Q84 1105 80 1112T75 1128Q75 1182 99 1227T163 1307T253 1360T355 1379Q413 1379 461 1361T542 1309T594 1232T613 1136Q613 1061 559 987T403 825Q395 818 373 797T324 749T274 698T238 660H534Q547
660 555 664T570 678T581 704T594 747H643L615 577Q613 569 605 560T575 551H74V551Z" />
<glyph unicode="&#xb3;" glyph-name="threesuperior" horiz-adv-x="682" d="M297 535Q261 535 218 539T136 555T71 587T45 641Q45 667 62 686T119 705Q144 705 167 689T214 652T264 616T324 599Q360 599 387 618T432 669T459 738T468 812Q468 856 458 884T433
929T399 951T363 957Q342 957 332 955T314 949T300 943T278 940Q273 940 267 943T254 952T244 963T240 972Q240 975 247 984T261 999Q283 1018 308 1041T354 1090T390 1143T404 1197Q404 1217 395 1234T370 1265T335 1285T298 1293Q264 1293 236 1281T185 1252T146
1216T122 1180Q118 1173 114 1172T102 1170Q96 1170 86 1175T76 1189L82 1204Q97 1240 118 1272T169 1328T237 1365T323 1379Q370 1379 410 1370T480 1342T526 1296T543 1233Q543 1206 534 1182T508 1137T471 1096T427 1061Q480 1055 516 1035T574 984T606 915T616
837Q616 770 588 715T515 619T412 557T297 535Z" />
<glyph unicode="&#xb4;" glyph-name="acute" horiz-adv-x="740" d="M176 1084Q173 1088 171 1092T168 1102Q168 1108 171 1112T176 1120L389 1415Q411 1445 434 1458T480 1472Q499 1472 516 1465T545 1444T565 1414T572 1378Q572 1341 552 1314T509 1268L239 1050Q233
1045 231 1045T221 1044Q212 1044 208 1046T198 1055L176 1084Z" />
<glyph unicode="&#xb5;" glyph-name="uni00B5" horiz-adv-x="1175" d="M976 231Q976 187 998 168T1066 149L1124 153Q1128 153 1129 148T1130 136Q1130 134 1128 131T1115 123L774 -21Q772 -22 764 -24T755 -27Q748 -27 747 -19T745 -2V76Q745 82 740 82Q735 82
729 79Q674 55 637 38T573 9T528 -10T496 -21T467 -26T433 -27Q410 -27 391 -24T349 -16V-528Q349 -537 348 -541T340 -548L167 -620Q158 -620 157 -617T155 -599V899Q155 913 156 916T167 920H375Q384 920 385 917T387 899V257Q387 223 402 196T443 149T500 120T566
110Q578 110 602 116T653 134T705 163T745 202V899Q745 913 746 916T757 920H964Q973 920 974 917T976 899V231Z" />
<glyph unicode="&#xb6;" glyph-name="paragraph" horiz-adv-x="1216" d="M729 -275Q729 -294 727 -301T713 -308H619Q608 -308 606 -300T604 -271V835Q562 837 509 841T399 857T289 891T193 952T126 1048T100 1189Q100 1287 128 1355T207 1468T330 1538T492 1575T686
1589T905 1592H1156Q1181 1592 1181 1576V1507Q1181 1498 1176 1495T1154 1491H1021V-290Q1021 -299 1018 -303T1004 -308H911Q900 -308 898 -302T895 -273V1486H729V-275Z" />
<glyph unicode="&#xb7;" glyph-name="middot" horiz-adv-x="604" d="M130 678Q130 712 143 743T180 798T235 836T302 850Q338 850 369 836T423 799T460 744T474 678Q474 641 461 610T424 555T369 519T302 506Q267 506 236 519T181 555T144 609T130 678Z" />
<glyph unicode="&#xb8;" glyph-name="cedilla" horiz-adv-x="775" d="M564 15L424 -150Q463 -165 489 -187T530 -231T552 -273T559 -305Q559 -367 526 -411T441 -483T324 -524T195 -537Q155 -537 128 -529T100 -489Q100 -481 109 -470T139 -450Q147 -447 162 -445T194
-439Q218 -435 246 -429T299 -411T339 -378T356 -324Q356 -302 338 -285T295 -256T243 -236T197 -227L393 15H564Z" />
<glyph unicode="&#xb9;" glyph-name="onesuperior" horiz-adv-x="688" d="M153 552Q135 552 130 556T125 566V599Q125 604 129 608T151 612Q163 612 181 612T216 614T248 617T268 625V1231Q248 1217 234 1209T207 1193T182 1179T152 1163Q149 1161 142 1158T129
1155Q123 1155 120 1161T108 1181Q107 1182 107 1183V1184Q107 1186 121 1196Q139 1208 162 1227T211 1270T264 1322T316 1379H402Q425 1379 430 1376T436 1360V674Q436 657 437 641T440 624Q455 615 481 614T533 612Q552 612 557 608T562 599V566Q562 561 557
557T533 552H153V552Z" />
<glyph unicode="&#xba;" glyph-name="ordmasculine" horiz-adv-x="824" d="M29 1061Q29 1125 57 1184T134 1288T245 1360T380 1387Q454 1387 521 1362T638 1292T718 1188T748 1058Q748 987 721 926T646 819T532 749T386 723Q308 723 243 749T130 821T56 928T29
1061ZM204 1104Q204 1048 216 989T254 881T319 801T414 769Q454 769 483 790T531 844T559 919T568 1003Q568 1053 554 1111T513 1218T447 1300T355 1333Q317 1333 289 1312T241 1258T213 1185T204 1104Z" />
<glyph unicode="&#xbb;" glyph-name="guillemotright" horiz-adv-x="893" d="M543 927L825 552L543 179H443L633 552Q587 644 539 739T445 927H543ZM210 927L492 552L210 179H110L300 552Q254 644 206 739T112 927H210Z" />
<glyph unicode="&#xbc;" glyph-name="onequarter" horiz-adv-x="1646" d="M1317 1480H1507L406 -55H217L1317 1480ZM384 552Q366 552 361 556T356 566V599Q356 604 360 608T382 612Q394 612 412 612T447 614T479 617T499 625V1231Q479 1217 465 1209T438 1193T413
1179T383 1163Q380 1161 373 1158T360 1155Q354 1155 351 1161T339 1181Q338 1182 338 1183V1184Q338 1186 352 1196Q370 1208 393 1227T442 1270T495 1322T547 1379H633Q656 1379 661 1376T667 1360V674Q667 657 668 641T671 624Q686 615 712 614T764 612Q783
612 788 608T793 599V566Q793 561 788 557T764 552H384V552ZM929 270Q929 283 931 286L1325 837Q1328 842 1336 844T1355 848T1373 850T1385 850Q1390 850 1401 850T1423 849T1442 844T1451 835V366Q1451 351 1462 351H1562Q1569 351 1575 350T1581 340V261Q1581
247 1569 247H1460Q1454 247 1453 246T1451 235V18Q1451 15 1449 8T1434 1H1313Q1304 1 1303 7T1301 15V229Q1301 238 1296 242T1277 247H955Q944 247 937 254T929 270ZM1102 358Q1102 353 1106 352T1121 351H1288Q1296 351 1298 354T1301 363V603Q1301 611 1299
619T1286 627Q1281 627 1277 623T1269 614L1108 368L1105 362Q1104 360 1102 358Z" />
<glyph unicode="&#xbd;" glyph-name="onehalf" horiz-adv-x="1765" d="M1335 1480H1525L424 -55H235L1335 1480ZM1126 0Q1106 0 1103 3T1100 24Q1100 34 1106 44T1123 65Q1152 99 1191 133T1264 202Q1310 247 1355 293T1435 385T1493 476T1515 564Q1515 597 1502
626T1468 679T1419 715T1362 729Q1331 729 1304 719T1254 690T1217 648T1194 595Q1191 581 1182 568T1144 554Q1136 554 1132 561T1127 577Q1127 631 1151 676T1215 756T1305 809T1407 828Q1465 828 1513 810T1594 758T1646 681T1665 585Q1665 510 1611 436T1455
274Q1447 267 1425 246T1376 198T1326 147T1290 109H1586Q1599 109 1607 113T1622 127T1633 153T1646 196H1695L1667 26Q1665 18 1657 9T1627 0H1126V0ZM384 552Q366 552 361 556T356 566V599Q356 604 360 608T382 612Q394 612 412 612T447 614T479 617T499 625V1231Q479
1217 465 1209T438 1193T413 1179T383 1163Q380 1161 373 1158T360 1155Q354 1155 351 1161T339 1181Q338 1182 338 1183V1184Q338 1186 352 1196Q370 1208 393 1227T442 1270T495 1322T547 1379H633Q656 1379 661 1376T667 1360V674Q667 657 668 641T671 624Q686
615 712 614T764 612Q783 612 788 608T793 599V566Q793 561 788 557T764 552H384V552Z" />
<glyph unicode="&#xbe;" glyph-name="threequarters" horiz-adv-x="1696" d="M1329 1480H1519L418 -55H229L1329 1480ZM551 535Q515 535 472 539T390 555T325 587T299 641Q299 667 316 686T373 705Q398 705 421 689T468 652T518 616T578 599Q614 599 641 618T686
669T713 738T722 812Q722 856 712 884T687 929T653 951T617 957Q596 957 586 955T568 949T554 943T532 940Q527 940 521 943T508 952T498 963T494 972Q494 975 501 984T515 999Q537 1018 562 1041T608 1090T644 1143T658 1197Q658 1217 649 1234T624 1265T589 1285T552
1293Q518 1293 490 1281T439 1252T400 1216T376 1180Q372 1173 368 1172T356 1170Q350 1170 340 1175T330 1189L336 1204Q351 1240 372 1272T423 1328T491 1365T577 1379Q624 1379 664 1370T734 1342T780 1296T797 1233Q797 1206 788 1182T762 1137T725 1096T681
1061Q734 1055 770 1035T828 984T860 915T870 837Q870 770 842 715T769 619T666 557T551 535ZM919 270Q919 283 921 286L1315 837Q1318 842 1326 844T1345 848T1363 850T1375 850Q1380 850 1391 850T1413 849T1432 844T1441 835V366Q1441 351 1452 351H1552Q1559
351 1565 350T1571 340V261Q1571 247 1559 247H1450Q1444 247 1443 246T1441 235V18Q1441 15 1439 8T1424 1H1303Q1294 1 1293 7T1291 15V229Q1291 238 1286 242T1267 247H945Q934 247 927 254T919 270ZM1092 358Q1092 353 1096 352T1111 351H1278Q1286 351 1288
354T1291 363V603Q1291 611 1289 619T1276 627Q1271 627 1267 623T1259 614L1098 368L1095 362Q1094 360 1092 358Z" />
<glyph unicode="&#xbf;" glyph-name="questiondown" horiz-adv-x="778" d="M506 565Q514 565 525 551T549 513T572 460T593 403T609 349T617 307Q617 243 592 203T528 136T439 91T343 53Q312 40 285 23T237 -16T204 -68T192 -136Q192 -182 213 -212T280 -259T400
-283T580 -290Q598 -291 617 -298T651 -318T677 -347T688 -386Q688 -416 679 -442T650 -489T598 -520T518 -532Q434 -532 362 -497T238 -403T155 -266T125 -103Q125 -44 143 16T193 129T269 226T365 294Q390 306 415 316T461 340T494 377T507 435Q507 456 505 466T499
484T488 504T473 537Q473 539 477 544T487 553T498 561T506 565ZM662 808Q662 777 650 749T618 700T570 667T510 655Q479 655 451 667T403 700T371 749T359 808Q359 839 371 867T403 916T451 950T510 963Q542 963 569 951T617 917T650 867T662 808Z" />
<glyph unicode="&#xc0;" glyph-name="Agrave" horiz-adv-x="1541" d="M5 47Q5 55 13 55Q32 56 57 60T109 79T161 122T203 201L605 1367Q605 1366 605 1368T606 1372Q606 1379 601 1389T595 1405Q595 1410 599 1410H889Q891 1409 894 1408T900 1402L1323 215Q1333
187 1342 167T1363 132T1395 104T1444 78Q1458 71 1482 63T1528 55Q1533 55 1534 52T1536 46V8Q1536 6 1535 3T1528 0H826Q821 0 820 3T818 8V47Q818 49 819 52T826 55Q830 55 834 55T840 56Q851 57 871 58T916 61T964 69T1009 85T1042 113T1055 155Q1055 161 1053
169L922 530Q921 532 919 539T911 553T897 567T876 573H515Q502 573 493 567T478 554T469 540T465 532Q433 438 411 374T375 267T352 202T341 169T337 156T336 153Q336 150 337 147T339 140Q347 115 368 99T418 73T475 59T528 55H554Q559 55 560 52T562 47V8Q562
6 561 3T554 0H13Q5 0 5 8V47ZM529 717Q527 712 526 707T525 697Q525 691 528 688T540 684H840Q851 684 854 688T858 699Q858 704 857 708T854 717L721 1082Q716 1096 706 1102T688 1109Q680 1109 670 1102T655 1081L529 717ZM862 1560Q857 1553 849 1548T834 1542Q823
1542 814 1549L545 1766Q522 1785 503 1812T483 1876Q483 1895 490 1912T509 1942T538 1962T575 1970Q598 1970 621 1957T666 1913L876 1622Q881 1615 882 1610T884 1597Q884 1594 883 1590T878 1581L862 1560Z" />
<glyph unicode="&#xc1;" glyph-name="Aacute" horiz-adv-x="1541" d="M5 47Q5 55 13 55Q32 56 57 60T109 79T161 122T203 201L605 1367Q605 1366 605 1368T606 1372Q606 1379 601 1389T595 1405Q595 1410 599 1410H889Q891 1409 894 1408T900 1402L1323 215Q1333
187 1342 167T1363 132T1395 104T1444 78Q1458 71 1482 63T1528 55Q1533 55 1534 52T1536 46V8Q1536 6 1535 3T1528 0H826Q821 0 820 3T818 8V47Q818 49 819 52T826 55Q830 55 834 55T840 56Q851 57 871 58T916 61T964 69T1009 85T1042 113T1055 155Q1055 161 1053
169L922 530Q921 532 919 539T911 553T897 567T876 573H515Q502 573 493 567T478 554T469 540T465 532Q433 438 411 374T375 267T352 202T341 169T337 156T336 153Q336 150 337 147T339 140Q347 115 368 99T418 73T475 59T528 55H554Q559 55 560 52T562 47V8Q562
6 561 3T554 0H13Q5 0 5 8V47ZM529 717Q527 712 526 707T525 697Q525 691 528 688T540 684H840Q851 684 854 688T858 699Q858 704 857 708T854 717L721 1082Q716 1096 706 1102T688 1109Q680 1109 670 1102T655 1081L529 717ZM705 1583Q702 1587 700 1591T697 1601Q697
1607 700 1611T705 1619L918 1914Q940 1944 963 1957T1009 1971Q1028 1971 1045 1964T1074 1943T1094 1913T1101 1877Q1101 1840 1081 1813T1038 1767L768 1549Q762 1544 760 1544T750 1543Q741 1543 737 1545T727 1554L705 1583Z" />
<glyph unicode="&#xc2;" glyph-name="Acircumflex" horiz-adv-x="1541" d="M5 47Q5 55 13 55Q32 56 57 60T109 79T161 122T203 201L605 1367Q605 1366 605 1368T606 1372Q606 1379 601 1389T595 1405Q595 1410 599 1410H889Q891 1409 894 1408T900 1402L1323 215Q1333
187 1342 167T1363 132T1395 104T1444 78Q1458 71 1482 63T1528 55Q1533 55 1534 52T1536 46V8Q1536 6 1535 3T1528 0H826Q821 0 820 3T818 8V47Q818 49 819 52T826 55Q830 55 834 55T840 56Q851 57 871 58T916 61T964 69T1009 85T1042 113T1055 155Q1055 161 1053
169L922 530Q921 532 919 539T911 553T897 567T876 573H515Q502 573 493 567T478 554T469 540T465 532Q433 438 411 374T375 267T352 202T341 169T337 156T336 153Q336 150 337 147T339 140Q347 115 368 99T418 73T475 59T528 55H554Q559 55 560 52T562 47V8Q562
6 561 3T554 0H13Q5 0 5 8V47ZM529 717Q527 712 526 707T525 697Q525 691 528 688T540 684H840Q851 684 854 688T858 699Q858 704 857 708T854 717L721 1082Q716 1096 706 1102T688 1109Q680 1109 670 1102T655 1081L529 717ZM740 1780L520 1550Q515 1545 508 1543T496
1540Q491 1540 484 1546T469 1562T456 1579T451 1592Q451 1601 453 1606T462 1619L707 1949Q712 1957 721 1963T740 1970Q752 1970 763 1961T782 1940L1030 1618Q1041 1604 1041 1592Q1041 1588 1036 1580T1024 1562T1009 1547T996 1540Q991 1540 985 1542T974
1550L740 1780Z" />
<glyph unicode="&#xc3;" glyph-name="Atilde" horiz-adv-x="1541" d="M5 47Q5 55 13 55Q32 56 57 60T109 79T161 122T203 201L605 1367Q605 1366 605 1368T606 1372Q606 1379 601 1389T595 1405Q595 1410 599 1410H889Q891 1409 894 1408T900 1402L1323 215Q1333
187 1342 167T1363 132T1395 104T1444 78Q1458 71 1482 63T1528 55Q1533 55 1534 52T1536 46V8Q1536 6 1535 3T1528 0H826Q821 0 820 3T818 8V47Q818 49 819 52T826 55Q830 55 834 55T840 56Q851 57 871 58T916 61T964 69T1009 85T1042 113T1055 155Q1055 161 1053
169L922 530Q921 532 919 539T911 553T897 567T876 573H515Q502 573 493 567T478 554T469 540T465 532Q433 438 411 374T375 267T352 202T341 169T337 156T336 153Q336 150 337 147T339 140Q347 115 368 99T418 73T475 59T528 55H554Q559 55 560 52T562 47V8Q562
6 561 3T554 0H13Q5 0 5 8V47ZM529 717Q527 712 526 707T525 697Q525 691 528 688T540 684H840Q851 684 854 688T858 699Q858 704 857 708T854 717L721 1082Q716 1096 706 1102T688 1109Q680 1109 670 1102T655 1081L529 717ZM1032 1948Q1037 1948 1039 1943T1043
1932T1045 1918T1046 1907Q1046 1874 1035 1834T1003 1758T952 1699T884 1675Q843 1675 805 1691T731 1726T657 1762T581 1779Q567 1779 552 1770T523 1746T502 1709T493 1664Q493 1656 488 1654T477 1652H456Q448 1652 448 1668Q448 1714 459 1762T490 1849T539
1912T604 1937Q646 1937 686 1921T765 1885T844 1849T923 1832Q941 1832 955 1842T978 1867T992 1901T997 1934Q997 1940 1002 1944T1013 1948H1032Z" />
<glyph unicode="&#xc4;" glyph-name="Adieresis" horiz-adv-x="1541" d="M5 47Q5 55 13 55Q32 56 57 60T109 79T161 122T203 201L605 1367Q605 1366 605 1368T606 1372Q606 1379 601 1389T595 1405Q595 1410 599 1410H889Q891 1409 894 1408T900 1402L1323 215Q1333
187 1342 167T1363 132T1395 104T1444 78Q1458 71 1482 63T1528 55Q1533 55 1534 52T1536 46V8Q1536 6 1535 3T1528 0H826Q821 0 820 3T818 8V47Q818 49 819 52T826 55Q830 55 834 55T840 56Q851 57 871 58T916 61T964 69T1009 85T1042 113T1055 155Q1055 161 1053
169L922 530Q921 532 919 539T911 553T897 567T876 573H515Q502 573 493 567T478 554T469 540T465 532Q433 438 411 374T375 267T352 202T341 169T337 156T336 153Q336 150 337 147T339 140Q347 115 368 99T418 73T475 59T528 55H554Q559 55 560 52T562 47V8Q562
6 561 3T554 0H13Q5 0 5 8V47ZM529 717Q527 712 526 707T525 697Q525 691 528 688T540 684H840Q851 684 854 688T858 699Q858 704 857 708T854 717L721 1082Q716 1096 706 1102T688 1109Q680 1109 670 1102T655 1081L529 717ZM509 1663Q480 1663 455 1673T412 1702T383
1744T372 1798Q372 1827 382 1852T411 1896T455 1926T509 1937Q538 1937 563 1926T606 1897T635 1853T646 1798Q646 1769 636 1745T607 1702T563 1674T509 1663ZM948 1663Q919 1663 895 1673T851 1702T822 1744T811 1798Q811 1827 821 1852T851 1896T894 1926T948
1937Q978 1937 1003 1926T1046 1897T1074 1853T1085 1798Q1085 1769 1075 1745T1046 1702T1003 1674T948 1663Z" />
<glyph unicode="&#xc5;" glyph-name="Aring" horiz-adv-x="1541" d="M5 47Q5 55 13 55Q32 56 57 60T109 79T161 122T203 201L605 1367Q605 1366 605 1368T606 1372Q606 1379 601 1389T595 1405Q595 1410 599 1410H889Q891 1409 894 1408T900 1402L1323 215Q1333
187 1342 167T1363 132T1395 104T1444 78Q1458 71 1482 63T1528 55Q1533 55 1534 52T1536 46V8Q1536 6 1535 3T1528 0H826Q821 0 820 3T818 8V47Q818 49 819 52T826 55Q830 55 834 55T840 56Q851 57 871 58T916 61T964 69T1009 85T1042 113T1055 155Q1055 161 1053
169L922 530Q921 532 919 539T911 553T897 567T876 573H515Q502 573 493 567T478 554T469 540T465 532Q433 438 411 374T375 267T352 202T341 169T337 156T336 153Q336 150 337 147T339 140Q347 115 368 99T418 73T475 59T528 55H554Q559 55 560 52T562 47V8Q562
6 561 3T554 0H13Q5 0 5 8V47ZM529 717Q527 712 526 707T525 697Q525 691 528 688T540 684H840Q851 684 854 688T858 699Q858 704 857 708T854 717L721 1082Q716 1096 706 1102T688 1109Q680 1109 670 1102T655 1081L529 717ZM645 1800Q645 1776 654 1755T678 1719T714
1695T759 1686Q782 1686 802 1695T839 1719T864 1755T873 1800Q873 1823 864 1843T839 1880T803 1905T759 1914Q735 1914 714 1905T678 1880T654 1844T645 1800ZM545 1800Q545 1844 562 1883T608 1951T676 1997T759 2014Q803 2014 842 1997T910 1951T956 1883T973
1800Q973 1756 956 1717T910 1649T842 1603T759 1586Q715 1586 676 1603T608 1649T562 1717T545 1800Z" />
<glyph unicode="&#xc6;" glyph-name="AE" horiz-adv-x="1995" d="M5 22Q5 32 13 40T34 55T60 65T85 72Q106 77 123 91T156 123T184 163T212 204L853 1267Q865 1283 865 1297Q865 1310 857 1319T837 1335T812 1345T788 1349Q772 1349 751 1349T686 1350Q668 1350
661 1361T653 1378Q653 1385 656 1397T671 1410H1762Q1780 1410 1788 1404T1798 1375L1816 1055Q1816 1050 1808 1048T1792 1045Q1784 1045 1776 1047T1765 1053Q1758 1063 1755 1082T1749 1126T1739 1176T1719 1224T1684 1262T1626 1285H1269Q1256 1285 1256 1272V795Q1256
785 1266 785H1552Q1577 785 1601 791T1644 815T1674 862T1686 941Q1686 949 1694 949H1733Q1741 949 1741 941V483Q1741 478 1738 477T1733 475H1694Q1689 475 1688 478T1686 483Q1686 539 1675 573T1644 627T1601 653T1549 660H1266Q1256 660 1256 650V213Q1256
184 1265 167T1289 140T1325 128T1367 125H1640Q1698 125 1737 151T1800 216T1835 295T1850 365Q1852 378 1863 385T1888 393Q1893 393 1900 389T1907 380L1874 14Q1872 9 1869 5T1860 0H700Q693 0 693 6V51Q693 52 694 55T701 59H723Q765 62 809 62T889 73T948
110T971 193V555H640Q624 555 612 549T590 536T576 522T570 514L359 153Q357 149 357 145T356 135Q356 108 377 94T429 72T492 63T547 59Q557 58 564 47T571 28Q571 19 568 10T553 0H21Q9 0 7 7T5 22ZM971 666V1099Q971 1110 966 1114T954 1118Q940 1118 932 1110T917
1090L673 684Q672 682 672 679Q672 666 705 666H971Z" />
<glyph unicode="&#xc7;" glyph-name="Ccedilla" horiz-adv-x="1589" d="M105 696Q105 808 133 907T212 1091T335 1242T494 1355T682 1427T891 1452Q983 1452 1068 1436T1245 1397Q1260 1393 1276 1387T1307 1376T1334 1366T1352 1362Q1354 1362 1365 1366T1382
1370H1428Q1440 1370 1440 1353V1027Q1440 1021 1436 1019T1416 1017Q1413 1017 1401 1017T1385 1023Q1383 1026 1378 1035T1366 1053T1354 1071T1347 1083Q1309 1158 1264 1209T1165 1293T1046 1339T907 1354Q812 1354 739 1332T610 1270T518 1174T457 1052T423
910T412 754Q412 669 424 586T463 427T532 287T635 175T775 100T956 73Q1041 73 1114 98T1249 167T1357 267T1439 386Q1441 391 1443 391T1451 392H1502Q1505 392 1508 390T1512 379Q1512 376 1508 364T1498 342L1360 38Q1358 35 1354 33T1347 31Q1323 31 1314
35T1294 39Q1265 39 1218 30T1117 9T1006 -13T902 -26L798 -150Q837 -165 863 -187T904 -231T926 -273T933 -305Q933 -367 900 -411T815 -483T698 -524T569 -537Q529 -537 502 -529T474 -489Q474 -481 483 -470T513 -450Q521 -447 536 -445T568 -439Q592 -435 620
-429T673 -411T713 -378T730 -324Q730 -302 712 -285T669 -256T617 -236T571 -227L742 -15Q608 6 492 65T290 215T155 428T105 696Z" />
<glyph unicode="&#xc8;" glyph-name="Egrave" horiz-adv-x="1309" d="M7 51Q7 52 8 55T15 59H37Q79 62 123 62T203 73T262 110T285 193V1217Q285 1256 269 1280T227 1320T168 1342T101 1355H80Q75 1355 74 1358T72 1363V1402Q72 1404 73 1407T80 1410H1076Q1094
1410 1102 1404T1112 1375L1130 1055Q1130 1050 1122 1048T1106 1045Q1098 1045 1090 1047T1079 1053Q1072 1063 1069 1082T1063 1126T1053 1176T1033 1224T998 1262T940 1285H583Q570 1285 570 1272V795Q570 785 580 785H866Q891 785 915 791T958 815T988 862T1000
941Q1000 949 1008 949H1047Q1055 949 1055 941V483Q1055 478 1052 477T1047 475H1008Q1003 475 1002 478T1000 483Q1000 539 989 573T958 627T915 653T863 660H580Q570 660 570 650V213Q570 184 579 167T603 140T639 128T681 125H954Q1012 125 1051 151T1114 216T1149
295T1164 365Q1166 378 1177 385T1202 393Q1207 393 1214 389T1221 380L1188 14Q1186 9 1183 5T1174 0H15Q9 0 8 3T7 8V22V51ZM789 1560Q784 1553 776 1548T761 1542Q750 1542 741 1549L472 1766Q449 1785 430 1812T410 1876Q410 1895 417 1912T436 1942T465 1962T502
1970Q525 1970 548 1957T593 1913L803 1622Q808 1615 809 1610T811 1597Q811 1594 810 1590T805 1581L789 1560Z" />
<glyph unicode="&#xc9;" glyph-name="Eacute" horiz-adv-x="1309" d="M7 51Q7 52 8 55T15 59H37Q79 62 123 62T203 73T262 110T285 193V1217Q285 1256 269 1280T227 1320T168 1342T101 1355H80Q75 1355 74 1358T72 1363V1402Q72 1404 73 1407T80 1410H1076Q1094
1410 1102 1404T1112 1375L1130 1055Q1130 1050 1122 1048T1106 1045Q1098 1045 1090 1047T1079 1053Q1072 1063 1069 1082T1063 1126T1053 1176T1033 1224T998 1262T940 1285H583Q570 1285 570 1272V795Q570 785 580 785H866Q891 785 915 791T958 815T988 862T1000
941Q1000 949 1008 949H1047Q1055 949 1055 941V483Q1055 478 1052 477T1047 475H1008Q1003 475 1002 478T1000 483Q1000 539 989 573T958 627T915 653T863 660H580Q570 660 570 650V213Q570 184 579 167T603 140T639 128T681 125H954Q1012 125 1051 151T1114 216T1149
295T1164 365Q1166 378 1177 385T1202 393Q1207 393 1214 389T1221 380L1188 14Q1186 9 1183 5T1174 0H15Q9 0 8 3T7 8V22V51ZM571 1582Q568 1586 566 1590T563 1600Q563 1606 566 1610T571 1618L784 1913Q806 1943 829 1956T875 1970Q894 1970 911 1963T940 1942T960
1912T967 1876Q967 1839 947 1812T904 1766L634 1548Q628 1543 626 1543T616 1542Q607 1542 603 1544T593 1553L571 1582Z" />
<glyph unicode="&#xca;" glyph-name="Ecircumflex" horiz-adv-x="1309" d="M7 51Q7 52 8 55T15 59H37Q79 62 123 62T203 73T262 110T285 193V1217Q285 1256 269 1280T227 1320T168 1342T101 1355H80Q75 1355 74 1358T72 1363V1402Q72 1404 73 1407T80 1410H1076Q1094
1410 1102 1404T1112 1375L1130 1055Q1130 1050 1122 1048T1106 1045Q1098 1045 1090 1047T1079 1053Q1072 1063 1069 1082T1063 1126T1053 1176T1033 1224T998 1262T940 1285H583Q570 1285 570 1272V795Q570 785 580 785H866Q891 785 915 791T958 815T988 862T1000
941Q1000 949 1008 949H1047Q1055 949 1055 941V483Q1055 478 1052 477T1047 475H1008Q1003 475 1002 478T1000 483Q1000 539 989 573T958 627T915 653T863 660H580Q570 660 570 650V213Q570 184 579 167T603 140T639 128T681 125H954Q1012 125 1051 151T1114 216T1149
295T1164 365Q1166 378 1177 385T1202 393Q1207 393 1214 389T1221 380L1188 14Q1186 9 1183 5T1174 0H15Q9 0 8 3T7 8V22V51ZM680 1804L460 1574Q455 1569 448 1567T436 1564Q431 1564 424 1570T409 1586T396 1603T391 1616Q391 1625 393 1630T402 1643L647 1973Q652
1981 661 1987T680 1994Q692 1994 703 1985T722 1964L970 1642Q981 1628 981 1616Q981 1612 976 1604T964 1586T949 1571T936 1564Q931 1564 925 1566T914 1574L680 1804Z" />
<glyph unicode="&#xcb;" glyph-name="Edieresis" horiz-adv-x="1309" d="M7 51Q7 52 8 55T15 59H37Q79 62 123 62T203 73T262 110T285 193V1217Q285 1256 269 1280T227 1320T168 1342T101 1355H80Q75 1355 74 1358T72 1363V1402Q72 1404 73 1407T80 1410H1076Q1094
1410 1102 1404T1112 1375L1130 1055Q1130 1050 1122 1048T1106 1045Q1098 1045 1090 1047T1079 1053Q1072 1063 1069 1082T1063 1126T1053 1176T1033 1224T998 1262T940 1285H583Q570 1285 570 1272V795Q570 785 580 785H866Q891 785 915 791T958 815T988 862T1000
941Q1000 949 1008 949H1047Q1055 949 1055 941V483Q1055 478 1052 477T1047 475H1008Q1003 475 1002 478T1000 483Q1000 539 989 573T958 627T915 653T863 660H580Q570 660 570 650V213Q570 184 579 167T603 140T639 128T681 125H954Q1012 125 1051 151T1114 216T1149
295T1164 365Q1166 378 1177 385T1202 393Q1207 393 1214 389T1221 380L1188 14Q1186 9 1183 5T1174 0H15Q9 0 8 3T7 8V22V51ZM435 1663Q406 1663 381 1673T338 1702T309 1744T298 1798Q298 1827 308 1852T337 1896T381 1926T435 1937Q464 1937 489 1926T532 1897T561
1853T572 1798Q572 1769 562 1745T533 1702T489 1674T435 1663ZM874 1663Q845 1663 821 1673T777 1702T748 1744T737 1798Q737 1827 747 1852T777 1896T820 1926T874 1937Q904 1937 929 1926T972 1897T1000 1853T1011 1798Q1011 1769 1001 1745T972 1702T929 1674T874
1663Z" />
<glyph unicode="&#xcc;" glyph-name="Igrave" horiz-adv-x="789" d="M537 190Q537 156 547 133T577 96T625 76T689 70Q697 70 697 62V8Q697 5 696 3T689 0H98Q93 0 92 3T90 8V62Q90 64 91 67T98 70Q133 70 161 74T210 94T241 137T252 213V1220Q252 1254 242 1277T212
1314T164 1334T100 1340Q92 1340 92 1348V1402Q92 1410 100 1410H691Q696 1410 697 1407T699 1402V1348Q699 1346 698 1343T691 1340Q656 1340 628 1336T579 1316T548 1273T537 1197V190V190ZM537 1560Q532 1553 524 1548T509 1542Q498 1542 489 1549L220 1766Q197
1785 178 1812T158 1876Q158 1895 165 1912T184 1942T213 1962T250 1970Q273 1970 296 1957T341 1913L551 1622Q556 1615 557 1610T559 1597Q559 1594 558 1590T553 1581L537 1560Z" />
<glyph unicode="&#xcd;" glyph-name="Iacute" horiz-adv-x="789" d="M537 190Q537 156 547 133T577 96T625 76T689 70Q697 70 697 62V8Q697 5 696 3T689 0H98Q93 0 92 3T90 8V62Q90 64 91 67T98 70Q133 70 161 74T210 94T241 137T252 213V1220Q252 1254 242 1277T212
1314T164 1334T100 1340Q92 1340 92 1348V1402Q92 1410 100 1410H691Q696 1410 697 1407T699 1402V1348Q699 1346 698 1343T691 1340Q656 1340 628 1336T579 1316T548 1273T537 1197V190V190ZM264 1582Q261 1586 259 1590T256 1600Q256 1606 259 1610T264 1618L477
1913Q499 1943 522 1956T568 1970Q587 1970 604 1963T633 1942T653 1912T660 1876Q660 1839 640 1812T597 1766L327 1548Q321 1543 319 1543T309 1542Q300 1542 296 1544T286 1553L264 1582Z" />
<glyph unicode="&#xce;" glyph-name="Icircumflex" horiz-adv-x="789" d="M537 190Q537 156 547 133T577 96T625 76T689 70Q697 70 697 62V8Q697 5 696 3T689 0H98Q93 0 92 3T90 8V62Q90 64 91 67T98 70Q133 70 161 74T210 94T241 137T252 213V1220Q252 1254 242
1277T212 1314T164 1334T100 1340Q92 1340 92 1348V1402Q92 1410 100 1410H691Q696 1410 697 1407T699 1402V1348Q699 1346 698 1343T691 1340Q656 1340 628 1336T579 1316T548 1273T537 1197V190V190ZM389 1780L169 1550Q164 1545 157 1543T145 1540Q140 1540
133 1546T118 1562T105 1579T100 1592Q100 1601 102 1606T111 1619L356 1949Q361 1957 370 1963T389 1970Q401 1970 412 1961T431 1940L679 1618Q690 1604 690 1592Q690 1588 685 1580T673 1562T658 1547T645 1540Q640 1540 634 1542T623 1550L389 1780Z" />
<glyph unicode="&#xcf;" glyph-name="Idieresis" horiz-adv-x="789" d="M537 190Q537 156 547 133T577 96T625 76T689 70Q697 70 697 62V8Q697 5 696 3T689 0H98Q93 0 92 3T90 8V62Q90 64 91 67T98 70Q133 70 161 74T210 94T241 137T252 213V1220Q252 1254 242
1277T212 1314T164 1334T100 1340Q92 1340 92 1348V1402Q92 1410 100 1410H691Q696 1410 697 1407T699 1402V1348Q699 1346 698 1343T691 1340Q656 1340 628 1336T579 1316T548 1273T537 1197V190V190ZM170 1663Q141 1663 116 1673T73 1702T44 1744T33 1798Q33
1827 43 1852T72 1896T116 1926T170 1937Q199 1937 224 1926T267 1897T296 1853T307 1798Q307 1769 297 1745T268 1702T224 1674T170 1663ZM609 1663Q580 1663 556 1673T512 1702T483 1744T472 1798Q472 1827 482 1852T512 1896T555 1926T609 1937Q639 1937 664
1926T707 1897T735 1853T746 1798Q746 1769 736 1745T707 1702T664 1674T609 1663Z" />
<glyph unicode="&#xd0;" glyph-name="Eth" horiz-adv-x="1754" d="M60 644Q39 644 39 669V745Q39 770 60 770H257V1241Q257 1272 244 1293T210 1328T164 1348T117 1354H53Q47 1354 46 1357T45 1362V1405Q45 1406 46 1409T53 1413H75L486 1420Q544 1421 611 1421T737
1422Q800 1422 850 1421T946 1415T1039 1403T1144 1384Q1255 1361 1350 1299T1515 1149T1624 954T1664 735Q1664 627 1634 531T1551 353T1424 206T1262 95T1075 25T872 0H53Q47 0 46 3T45 8V51Q45 52 46 55T53 59H75Q96 59 127 61T187 75T236 110T257 175V644H60ZM542
155Q542 126 560 110T609 87T681 78T767 77Q1064 77 1212 241T1361 719Q1361 857 1328 972T1226 1170T1054 1299T809 1345H567Q552 1345 547 1339T542 1318V770H870Q880 770 885 763T891 745V669Q891 658 885 651T870 644H542V155Z" />
<glyph unicode="&#xd1;" glyph-name="Ntilde" horiz-adv-x="1747" d="M310 0Q308 0 305 2T302 8V52Q302 60 310 60Q321 60 335 60T362 61T387 63T404 67Q429 79 445 99T469 145T481 202T484 268V1267Q484 1294 463 1310T413 1335T355 1347T310 1350Q305 1350 304
1353T302 1358V1402Q302 1404 303 1407T310 1410H763L1625 456Q1630 451 1632 449T1637 446Q1641 446 1642 449T1643 455V1049Q1643 1148 1636 1207T1610 1298T1559 1340T1477 1350H1426Q1421 1350 1420 1353T1418 1358V1402Q1418 1404 1419 1407T1426 1410H1976Q1982
1410 1983 1407T1984 1402V1358Q1984 1356 1983 1353T1976 1350Q1956 1350 1925 1342T1863 1319T1812 1282T1790 1232V49Q1790 32 1782 21T1762 2T1735 -8T1708 -12Q1688 -12 1662 -4T1609 34L665 1081Q658 1088 655 1089T647 1091Q642 1091 642 1081V188Q642 160
655 140T690 105T736 82T786 68T830 62T860 60Q865 60 867 56Q868 54 868 52V8Q868 6 867 3T860 0H310V0ZM1168 1948Q1173 1948 1175 1943T1179 1932T1181 1918T1182 1907Q1182 1874 1171 1834T1139 1758T1088 1699T1020 1675Q979 1675 941 1691T867 1726T793 1762T717
1779Q703 1779 688 1770T659 1746T638 1709T629 1664Q629 1656 624 1654T613 1652H592Q584 1652 584 1668Q584 1714 595 1762T626 1849T675 1912T740 1937Q782 1937 822 1921T901 1885T980 1849T1059 1832Q1077 1832 1091 1842T1114 1867T1128 1901T1133 1934Q1133
1940 1138 1944T1149 1948H1168Z" />
<glyph unicode="&#xd2;" glyph-name="Ograve" horiz-adv-x="1826" d="M902 -26Q867 -26 815 -20T700 2T569 44T436 110T311 206T208 335T137 503T110 714Q110 818 138 913T220 1090T348 1239T517 1353T719 1426T948 1452Q1052 1452 1149 1427T1332 1355T1487 1243T1609
1098T1688 926T1716 733Q1716 639 1689 547T1611 370T1488 213T1325 88T1128 4T902 -26ZM404 751Q404 670 420 589T469 433T548 293T655 179T788 103T948 75Q1069 75 1158 126T1305 263T1392 458T1421 687Q1421 773 1405 855T1357 1012T1279 1149T1172 1258T1038
1329T878 1355Q801 1355 736 1331T619 1266T526 1167T459 1042T418 901T404 751ZM1075 1585Q1070 1578 1062 1573T1047 1567Q1036 1567 1027 1574L758 1791Q735 1810 716 1837T696 1901Q696 1920 703 1937T722 1967T751 1987T788 1995Q811 1995 834 1982T879 1938L1089
1647Q1094 1640 1095 1635T1097 1622Q1097 1619 1096 1615T1091 1606L1075 1585Z" />
<glyph unicode="&#xd3;" glyph-name="Oacute" horiz-adv-x="1826" d="M902 -26Q867 -26 815 -20T700 2T569 44T436 110T311 206T208 335T137 503T110 714Q110 818 138 913T220 1090T348 1239T517 1353T719 1426T948 1452Q1052 1452 1149 1427T1332 1355T1487 1243T1609
1098T1688 926T1716 733Q1716 639 1689 547T1611 370T1488 213T1325 88T1128 4T902 -26ZM404 751Q404 670 420 589T469 433T548 293T655 179T788 103T948 75Q1069 75 1158 126T1305 263T1392 458T1421 687Q1421 773 1405 855T1357 1012T1279 1149T1172 1258T1038
1329T878 1355Q801 1355 736 1331T619 1266T526 1167T459 1042T418 901T404 751ZM811 1607Q808 1611 806 1615T803 1625Q803 1631 806 1635T811 1643L1024 1938Q1046 1968 1069 1981T1115 1995Q1134 1995 1151 1988T1180 1967T1200 1937T1207 1901Q1207 1864 1187
1837T1144 1791L874 1573Q868 1568 866 1568T856 1567Q847 1567 843 1569T833 1578L811 1607Z" />
<glyph unicode="&#xd4;" glyph-name="Ocircumflex" horiz-adv-x="1826" d="M902 -26Q867 -26 815 -20T700 2T569 44T436 110T311 206T208 335T137 503T110 714Q110 818 138 913T220 1090T348 1239T517 1353T719 1426T948 1452Q1052 1452 1149 1427T1332 1355T1487
1243T1609 1098T1688 926T1716 733Q1716 639 1689 547T1611 370T1488 213T1325 88T1128 4T902 -26ZM404 751Q404 670 420 589T469 433T548 293T655 179T788 103T948 75Q1069 75 1158 126T1305 263T1392 458T1421 687Q1421 773 1405 855T1357 1012T1279 1149T1172
1258T1038 1329T878 1355Q801 1355 736 1331T619 1266T526 1167T459 1042T418 901T404 751ZM911 1805L691 1575Q686 1570 679 1568T667 1565Q662 1565 655 1571T640 1587T627 1604T622 1617Q622 1626 624 1631T633 1644L878 1974Q883 1982 892 1988T911 1995Q923
1995 934 1986T953 1965L1201 1643Q1212 1629 1212 1617Q1212 1613 1207 1605T1195 1587T1180 1572T1167 1565Q1162 1565 1156 1567T1145 1575L911 1805Z" />
<glyph unicode="&#xd5;" glyph-name="Otilde" horiz-adv-x="1826" d="M902 -26Q867 -26 815 -20T700 2T569 44T436 110T311 206T208 335T137 503T110 714Q110 818 138 913T220 1090T348 1239T517 1353T719 1426T948 1452Q1052 1452 1149 1427T1332 1355T1487 1243T1609
1098T1688 926T1716 733Q1716 639 1689 547T1611 370T1488 213T1325 88T1128 4T902 -26ZM404 751Q404 670 420 589T469 433T548 293T655 179T788 103T948 75Q1069 75 1158 126T1305 263T1392 458T1421 687Q1421 773 1405 855T1357 1012T1279 1149T1172 1258T1038
1329T878 1355Q801 1355 736 1331T619 1266T526 1167T459 1042T418 901T404 751ZM1204 1877Q1209 1877 1211 1872T1215 1861T1217 1847T1218 1836Q1218 1803 1207 1763T1175 1687T1124 1628T1056 1604Q1015 1604 977 1620T903 1655T829 1691T753 1708Q739 1708
724 1699T695 1675T674 1638T665 1593Q665 1585 660 1583T649 1581H628Q620 1581 620 1597Q620 1643 631 1691T662 1778T711 1841T776 1866Q818 1866 858 1850T937 1814T1016 1778T1095 1761Q1113 1761 1127 1771T1150 1796T1164 1830T1169 1863Q1169 1869 1174
1873T1185 1877H1204Z" />
<glyph unicode="&#xd6;" glyph-name="Odieresis" horiz-adv-x="1826" d="M902 -26Q867 -26 815 -20T700 2T569 44T436 110T311 206T208 335T137 503T110 714Q110 818 138 913T220 1090T348 1239T517 1353T719 1426T948 1452Q1052 1452 1149 1427T1332 1355T1487
1243T1609 1098T1688 926T1716 733Q1716 639 1689 547T1611 370T1488 213T1325 88T1128 4T902 -26ZM404 751Q404 670 420 589T469 433T548 293T655 179T788 103T948 75Q1069 75 1158 126T1305 263T1392 458T1421 687Q1421 773 1405 855T1357 1012T1279 1149T1172
1258T1038 1329T878 1355Q801 1355 736 1331T619 1266T526 1167T459 1042T418 901T404 751ZM696 1594Q667 1594 642 1604T599 1633T570 1675T559 1729Q559 1758 569 1783T598 1827T642 1857T696 1868Q725 1868 750 1857T793 1828T822 1784T833 1729Q833 1700 823
1676T794 1633T750 1605T696 1594ZM1135 1594Q1106 1594 1082 1604T1038 1633T1009 1675T998 1729Q998 1758 1008 1783T1038 1827T1081 1857T1135 1868Q1165 1868 1190 1857T1233 1828T1261 1784T1272 1729Q1272 1700 1262 1676T1233 1633T1190 1605T1135 1594Z"
/>
<glyph unicode="&#xd7;" glyph-name="multiply" horiz-adv-x="1049" d="M238 1045L525 759L811 1046L943 914L656 628L941 341L810 208L524 495L237 208L105 341L391 627L105 913L238 1045Z" />
<glyph unicode="&#xd8;" glyph-name="Oslash" horiz-adv-x="1826" d="M333 186Q285 228 245 281T174 399T127 542T110 714Q110 818 138 913T220 1090T348 1239T517 1353T719 1426T948 1452Q1075 1452 1190 1415T1402 1311L1597 1517L1685 1434L1496 1235Q1598
1138 1657 1010T1716 733Q1716 639 1689 547T1611 370T1488 213T1325 88T1128 4T902 -26Q866 -26 813 -20T697 2T566 45T431 113L205 -125L117 -42L333 186ZM404 751Q404 651 429 552T502 364L1265 1167Q1195 1253 1098 1304T878 1355Q801 1355 736 1331T619 1266T526
1167T459 1042T418 901T404 751ZM1421 687Q1421 788 1399 883T1332 1062L572 261Q641 177 735 126T948 75Q1069 75 1158 126T1305 263T1392 458T1421 687Z" />
<glyph unicode="&#xd9;" glyph-name="Ugrave" horiz-adv-x="1672" d="M211 1235Q211 1264 198 1286T161 1324T108 1347T44 1355Q36 1355 36 1363V1402Q36 1410 43 1410H675Q680 1410 681 1407T683 1402V1363Q683 1361 682 1358T675 1355Q645 1355 614 1351T556
1333T513 1293T496 1221V520Q496 320 598 211T903 101Q987 101 1064 124T1200 197T1294 322T1329 503V1124Q1329 1158 1327 1194T1310 1262T1266 1317T1181 1350Q1156 1354 1140 1354T1118 1355Q1110 1355 1110 1363V1402Q1110 1410 1118 1410H1640Q1645 1410 1646
1407T1648 1402V1363Q1648 1361 1646 1358T1640 1355Q1604 1355 1577 1350T1535 1338Q1518 1331 1504 1317T1481 1286T1466 1252T1461 1221V581Q1461 440 1424 328T1313 137T1125 16T861 -27Q789 -27 713 -16T564 19T427 81T315 172T239 294T211 450V1235V1235ZM979
1560Q974 1553 966 1548T951 1542Q940 1542 931 1549L662 1766Q639 1785 620 1812T600 1876Q600 1895 607 1912T626 1942T655 1962T692 1970Q715 1970 738 1957T783 1913L993 1622Q998 1615 999 1610T1001 1597Q1001 1594 1000 1590T995 1581L979 1560Z" />
<glyph unicode="&#xda;" glyph-name="Uacute" horiz-adv-x="1672" d="M211 1235Q211 1264 198 1286T161 1324T108 1347T44 1355Q36 1355 36 1363V1402Q36 1410 43 1410H675Q680 1410 681 1407T683 1402V1363Q683 1361 682 1358T675 1355Q645 1355 614 1351T556
1333T513 1293T496 1221V520Q496 320 598 211T903 101Q987 101 1064 124T1200 197T1294 322T1329 503V1124Q1329 1158 1327 1194T1310 1262T1266 1317T1181 1350Q1156 1354 1140 1354T1118 1355Q1110 1355 1110 1363V1402Q1110 1410 1118 1410H1640Q1645 1410 1646
1407T1648 1402V1363Q1648 1361 1646 1358T1640 1355Q1604 1355 1577 1350T1535 1338Q1518 1331 1504 1317T1481 1286T1466 1252T1461 1221V581Q1461 440 1424 328T1313 137T1125 16T861 -27Q789 -27 713 -16T564 19T427 81T315 172T239 294T211 450V1235V1235ZM766
1582Q763 1586 761 1590T758 1600Q758 1606 761 1610T766 1618L979 1913Q1001 1943 1024 1956T1070 1970Q1089 1970 1106 1963T1135 1942T1155 1912T1162 1876Q1162 1839 1142 1812T1099 1766L829 1548Q823 1543 821 1543T811 1542Q802 1542 798 1544T788 1553L766
1582Z" />
<glyph unicode="&#xdb;" glyph-name="Ucircumflex" horiz-adv-x="1672" d="M211 1235Q211 1264 198 1286T161 1324T108 1347T44 1355Q36 1355 36 1363V1402Q36 1410 43 1410H675Q680 1410 681 1407T683 1402V1363Q683 1361 682 1358T675 1355Q645 1355 614 1351T556
1333T513 1293T496 1221V520Q496 320 598 211T903 101Q987 101 1064 124T1200 197T1294 322T1329 503V1124Q1329 1158 1327 1194T1310 1262T1266 1317T1181 1350Q1156 1354 1140 1354T1118 1355Q1110 1355 1110 1363V1402Q1110 1410 1118 1410H1640Q1645 1410 1646
1407T1648 1402V1363Q1648 1361 1646 1358T1640 1355Q1604 1355 1577 1350T1535 1338Q1518 1331 1504 1317T1481 1286T1466 1252T1461 1221V581Q1461 440 1424 328T1313 137T1125 16T861 -27Q789 -27 713 -16T564 19T427 81T315 172T239 294T211 450V1235V1235ZM887
1780L667 1550Q662 1545 655 1543T643 1540Q638 1540 631 1546T616 1562T603 1579T598 1592Q598 1601 600 1606T609 1619L854 1949Q859 1957 868 1963T887 1970Q899 1970 910 1961T929 1940L1177 1618Q1188 1604 1188 1592Q1188 1588 1183 1580T1171 1562T1156
1547T1143 1540Q1138 1540 1132 1542T1121 1550L887 1780Z" />
<glyph unicode="&#xdc;" glyph-name="Udieresis" horiz-adv-x="1672" d="M211 1235Q211 1264 198 1286T161 1324T108 1347T44 1355Q36 1355 36 1363V1402Q36 1410 43 1410H675Q680 1410 681 1407T683 1402V1363Q683 1361 682 1358T675 1355Q645 1355 614 1351T556
1333T513 1293T496 1221V520Q496 320 598 211T903 101Q987 101 1064 124T1200 197T1294 322T1329 503V1124Q1329 1158 1327 1194T1310 1262T1266 1317T1181 1350Q1156 1354 1140 1354T1118 1355Q1110 1355 1110 1363V1402Q1110 1410 1118 1410H1640Q1645 1410 1646
1407T1648 1402V1363Q1648 1361 1646 1358T1640 1355Q1604 1355 1577 1350T1535 1338Q1518 1331 1504 1317T1481 1286T1466 1252T1461 1221V581Q1461 440 1424 328T1313 137T1125 16T861 -27Q789 -27 713 -16T564 19T427 81T315 172T239 294T211 450V1235V1235ZM700
1663Q671 1663 646 1673T603 1702T574 1744T563 1798Q563 1827 573 1852T602 1896T646 1926T700 1937Q729 1937 754 1926T797 1897T826 1853T837 1798Q837 1769 827 1745T798 1702T754 1674T700 1663ZM1139 1663Q1110 1663 1086 1673T1042 1702T1013 1744T1002
1798Q1002 1827 1012 1852T1042 1896T1085 1926T1139 1937Q1169 1937 1194 1926T1237 1897T1265 1853T1276 1798Q1276 1769 1266 1745T1237 1702T1194 1674T1139 1663Z" />
<glyph unicode="&#xdd;" glyph-name="Yacute" horiz-adv-x="1564" d="M880 494Q880 500 877 504L468 1158Q451 1185 432 1212T389 1264T338 1307T278 1334Q273 1335 262 1337T239 1342T216 1346T200 1349Q190 1350 181 1361T172 1382Q172 1384 172 1389T174 1398T179
1406T187 1410H866Q877 1410 880 1400T883 1382Q883 1372 882 1361T870 1350Q843 1348 819 1346T778 1337T751 1314T741 1272Q741 1248 753 1229L1058 739Q1069 722 1072 718T1084 714Q1091 714 1096 722T1110 743L1351 1152Q1365 1175 1379 1203T1394 1260Q1394
1288 1387 1304T1364 1330T1328 1343T1278 1350Q1267 1351 1265 1362T1263 1382Q1263 1389 1265 1399T1280 1410H1783Q1791 1410 1794 1399T1797 1382Q1797 1372 1791 1365T1775 1354T1755 1347T1735 1342Q1685 1331 1649 1306T1577 1242Q1572 1237 1563 1226T1552
1213L1165 548V195Q1165 135 1196 102T1306 61Q1317 60 1334 60T1363 60Q1368 60 1369 57T1371 52V8Q1371 6 1370 3T1363 0H682Q677 0 676 3T674 8V52Q674 54 675 57T682 60Q693 60 710 60T739 61Q818 69 849 102T880 195V494ZM676 1582Q673 1586 671 1590T668
1600Q668 1606 671 1610T676 1618L889 1913Q911 1943 934 1956T980 1970Q999 1970 1016 1963T1045 1942T1065 1912T1072 1876Q1072 1839 1052 1812T1009 1766L739 1548Q733 1543 731 1543T721 1542Q712 1542 708 1544T698 1553L676 1582Z" />
<glyph unicode="&#xde;" glyph-name="Thorn" horiz-adv-x="1249" d="M40 52Q40 54 41 57T48 60Q126 60 168 96T211 190V1207Q211 1284 177 1317T66 1350H48Q43 1350 42 1353T40 1359V1402Q40 1404 41 1407T48 1410H657Q662 1410 663 1407T665 1402V1359Q665 1357
664 1354T657 1350H639Q609 1350 583 1348T538 1336T507 1307T496 1255V1175Q525 1176 539 1176T565 1178T591 1179T634 1180H715Q795 1180 877 1152T1026 1066T1135 922T1177 718Q1177 660 1157 608T1102 509T1024 426T933 362T839 321T751 306H745L519 313Q518
313 511 313T500 311Q496 308 496 303V177Q496 138 519 115T577 80T654 64T736 60Q744 60 744 53V8Q744 0 736 0H48Q43 0 42 3T40 8V52ZM496 436Q497 428 501 422T517 414Q526 413 544 411T594 408Q661 408 715 435T807 510T866 625T887 772Q887 854 867 916T809
1019T719 1080T602 1101Q588 1101 580 1101T565 1100T548 1099T521 1097Q515 1097 507 1095T496 1084V466V436Z" />
<glyph unicode="&#xdf;" glyph-name="germandbls" horiz-adv-x="1305" d="M559 911Q718 927 806 1015T894 1249Q894 1316 878 1372T833 1468T761 1530T666 1553Q611 1553 564 1527T482 1453T427 1342T407 1203V183Q407 144 412 120T431 82T467 63T523 58Q575 53
575 30Q575 26 574 21T567 11T551 3T520 0H62Q38 6 31 12T23 30Q23 41 38 47T93 65Q105 68 119 72T146 86T167 115T175 164V1059Q175 1164 196 1247T254 1396T341 1507T449 1583T569 1627T695 1641Q787 1641 866 1612T1003 1533T1095 1416T1129 1270Q1129 1149
1045 1052T805 892Q880 872 952 836T1082 744T1174 614T1209 444Q1209 361 1190 294T1139 174T1065 84T978 22T886 -14T799 -26Q733 -26 692 -10T651 47Q651 79 669 99T725 120Q744 120 763 112T800 94T836 76T873 68Q894 68 910 95T939 168T957 276T964 406Q964
530 935 621T853 765Q827 790 798 806T732 831T653 844T559 848V911Z" />
<glyph unicode="&#xe0;" glyph-name="agrave" horiz-adv-x="1017" d="M487 20Q454 -3 409 -16T319 -29Q197 -29 134 26T70 175Q70 229 94 268T167 337T285 391T449 440Q499 453 529 468T586 497Q603 506 605 513T608 526V700Q608 733 599 761T570 811T524 844T463
856Q434 856 409 846T366 817T338 772T327 713Q327 710 327 704T329 692T331 680T332 674Q331 672 316 666T278 653T228 638T177 623T134 611T108 604Q97 604 95 615T92 638Q92 696 127 751T220 848T355 917T512 943Q584 943 641 925T738 874T799 799T820 708V231Q820
205 839 185T890 164Q908 164 922 170T948 185T968 200T982 207Q990 207 991 201T992 189Q992 172 988 155T972 129Q923 92 885 63T816 12T760 -20T713 -31Q693 -31 678 -20T651 7T631 41T618 76T609 102T604 111L487 20ZM303 199Q303 172 313 155T341 129T379
117T424 113Q445 113 476 123T536 151T587 191T608 237V402Q608 413 600 413Q598 413 596 412L364 304Q350 294 339 286T319 266T307 239T303 199ZM630 1062Q625 1055 617 1050T602 1044Q591 1044 582 1051L313 1268Q290 1287 271 1314T251 1378Q251 1397 258 1414T277
1444T306 1464T343 1472Q366 1472 389 1459T434 1415L644 1124Q649 1117 650 1112T652 1099Q652 1096 651 1092T646 1083L630 1062Z" />
<glyph unicode="&#xe1;" glyph-name="aacute" horiz-adv-x="1017" d="M487 20Q454 -3 409 -16T319 -29Q197 -29 134 26T70 175Q70 229 94 268T167 337T285 391T449 440Q499 453 529 468T586 497Q603 506 605 513T608 526V700Q608 733 599 761T570 811T524 844T463
856Q434 856 409 846T366 817T338 772T327 713Q327 710 327 704T329 692T331 680T332 674Q331 672 316 666T278 653T228 638T177 623T134 611T108 604Q97 604 95 615T92 638Q92 696 127 751T220 848T355 917T512 943Q584 943 641 925T738 874T799 799T820 708V231Q820
205 839 185T890 164Q908 164 922 170T948 185T968 200T982 207Q990 207 991 201T992 189Q992 172 988 155T972 129Q923 92 885 63T816 12T760 -20T713 -31Q693 -31 678 -20T651 7T631 41T618 76T609 102T604 111L487 20ZM303 199Q303 172 313 155T341 129T379
117T424 113Q445 113 476 123T536 151T587 191T608 237V402Q608 413 600 413Q598 413 596 412L364 304Q350 294 339 286T319 266T307 239T303 199ZM405 1084Q402 1088 400 1092T397 1102Q397 1108 400 1112T405 1120L618 1415Q640 1445 663 1458T709 1472Q728 1472
745 1465T774 1444T794 1414T801 1378Q801 1341 781 1314T738 1268L468 1050Q462 1045 460 1045T450 1044Q441 1044 437 1046T427 1055L405 1084Z" />
<glyph unicode="&#xe2;" glyph-name="acircumflex" horiz-adv-x="1017" d="M487 20Q454 -3 409 -16T319 -29Q197 -29 134 26T70 175Q70 229 94 268T167 337T285 391T449 440Q499 453 529 468T586 497Q603 506 605 513T608 526V700Q608 733 599 761T570 811T524
844T463 856Q434 856 409 846T366 817T338 772T327 713Q327 710 327 704T329 692T331 680T332 674Q331 672 316 666T278 653T228 638T177 623T134 611T108 604Q97 604 95 615T92 638Q92 696 127 751T220 848T355 917T512 943Q584 943 641 925T738 874T799 799T820
708V231Q820 205 839 185T890 164Q908 164 922 170T948 185T968 200T982 207Q990 207 991 201T992 189Q992 172 988 155T972 129Q923 92 885 63T816 12T760 -20T713 -31Q693 -31 678 -20T651 7T631 41T618 76T609 102T604 111L487 20ZM303 199Q303 172 313 155T341
129T379 117T424 113Q445 113 476 123T536 151T587 191T608 237V402Q608 413 600 413Q598 413 596 412L364 304Q350 294 339 286T319 266T307 239T303 199ZM501 1283L281 1053Q276 1048 269 1046T257 1043Q252 1043 245 1049T230 1065T217 1082T212 1095Q212 1104
214 1109T223 1122L468 1452Q473 1460 482 1466T501 1473Q513 1473 524 1464T543 1443L791 1121Q802 1107 802 1095Q802 1091 797 1083T785 1065T770 1050T757 1043Q752 1043 746 1045T735 1053L501 1283Z" />
<glyph unicode="&#xe3;" glyph-name="atilde" horiz-adv-x="1017" d="M487 20Q454 -3 409 -16T319 -29Q197 -29 134 26T70 175Q70 229 94 268T167 337T285 391T449 440Q499 453 529 468T586 497Q603 506 605 513T608 526V700Q608 733 599 761T570 811T524 844T463
856Q434 856 409 846T366 817T338 772T327 713Q327 710 327 704T329 692T331 680T332 674Q331 672 316 666T278 653T228 638T177 623T134 611T108 604Q97 604 95 615T92 638Q92 696 127 751T220 848T355 917T512 943Q584 943 641 925T738 874T799 799T820 708V231Q820
205 839 185T890 164Q908 164 922 170T948 185T968 200T982 207Q990 207 991 201T992 189Q992 172 988 155T972 129Q923 92 885 63T816 12T760 -20T713 -31Q693 -31 678 -20T651 7T631 41T618 76T609 102T604 111L487 20ZM303 199Q303 172 313 155T341 129T379
117T424 113Q445 113 476 123T536 151T587 191T608 237V402Q608 413 600 413Q598 413 596 412L364 304Q350 294 339 286T319 266T307 239T303 199ZM780 1388Q785 1388 787 1383T791 1372T793 1358T794 1347Q794 1314 783 1274T751 1198T700 1139T632 1115Q591 1115
553 1131T479 1166T405 1202T329 1219Q315 1219 300 1210T271 1186T250 1149T241 1104Q241 1096 236 1094T225 1092H204Q196 1092 196 1108Q196 1154 207 1202T238 1289T287 1352T352 1377Q394 1377 434 1361T513 1325T592 1289T671 1272Q689 1272 703 1282T726
1307T740 1341T745 1374Q745 1380 750 1384T761 1388H780Z" />
<glyph unicode="&#xe4;" glyph-name="adieresis" horiz-adv-x="1017" d="M487 20Q454 -3 409 -16T319 -29Q197 -29 134 26T70 175Q70 229 94 268T167 337T285 391T449 440Q499 453 529 468T586 497Q603 506 605 513T608 526V700Q608 733 599 761T570 811T524 844T463
856Q434 856 409 846T366 817T338 772T327 713Q327 710 327 704T329 692T331 680T332 674Q331 672 316 666T278 653T228 638T177 623T134 611T108 604Q97 604 95 615T92 638Q92 696 127 751T220 848T355 917T512 943Q584 943 641 925T738 874T799 799T820 708V231Q820
205 839 185T890 164Q908 164 922 170T948 185T968 200T982 207Q990 207 991 201T992 189Q992 172 988 155T972 129Q923 92 885 63T816 12T760 -20T713 -31Q693 -31 678 -20T651 7T631 41T618 76T609 102T604 111L487 20ZM303 199Q303 172 313 155T341 129T379
117T424 113Q445 113 476 123T536 151T587 191T608 237V402Q608 413 600 413Q598 413 596 412L364 304Q350 294 339 286T319 266T307 239T303 199ZM254 1092Q225 1092 200 1102T157 1131T128 1173T117 1227Q117 1256 127 1281T156 1325T200 1355T254 1366Q283 1366
308 1355T351 1326T380 1282T391 1227Q391 1198 381 1174T352 1131T308 1103T254 1092ZM693 1092Q664 1092 640 1102T596 1131T567 1173T556 1227Q556 1256 566 1281T596 1325T639 1355T693 1366Q723 1366 748 1355T791 1326T819 1282T830 1227Q830 1198 820 1174T791
1131T748 1103T693 1092Z" />
<glyph unicode="&#xe5;" glyph-name="aring" horiz-adv-x="1017" d="M487 20Q454 -3 409 -16T319 -29Q197 -29 134 26T70 175Q70 229 94 268T167 337T285 391T449 440Q499 453 529 468T586 497Q603 506 605 513T608 526V700Q608 733 599 761T570 811T524 844T463
856Q434 856 409 846T366 817T338 772T327 713Q327 710 327 704T329 692T331 680T332 674Q331 672 316 666T278 653T228 638T177 623T134 611T108 604Q97 604 95 615T92 638Q92 696 127 751T220 848T355 917T512 943Q584 943 641 925T738 874T799 799T820 708V231Q820
205 839 185T890 164Q908 164 922 170T948 185T968 200T982 207Q990 207 991 201T992 189Q992 172 988 155T972 129Q923 92 885 63T816 12T760 -20T713 -31Q693 -31 678 -20T651 7T631 41T618 76T609 102T604 111L487 20ZM303 199Q303 172 313 155T341 129T379
117T424 113Q445 113 476 123T536 151T587 191T608 237V402Q608 413 600 413Q598 413 596 412L364 304Q350 294 339 286T319 266T307 239T303 199ZM394 1263Q394 1239 403 1218T427 1182T463 1158T508 1149Q531 1149 551 1158T588 1182T613 1218T622 1263Q622 1286
613 1306T588 1343T552 1368T508 1377Q484 1377 463 1368T427 1343T403 1307T394 1263ZM294 1263Q294 1307 311 1346T357 1414T425 1460T508 1477Q552 1477 591 1460T659 1414T705 1346T722 1263Q722 1219 705 1180T659 1112T591 1066T508 1049Q464 1049 425 1066T357
1112T311 1180T294 1263Z" />
<glyph unicode="&#xe6;" glyph-name="ae" horiz-adv-x="1522" d="M319 -29Q197 -29 134 26T70 175Q70 229 94 268T167 337T285 391T449 440Q499 453 529 468T586 497Q603 506 605 513T608 526V700Q608 733 599 761T570 811T524 844T463 856Q434 856 409 846T366
817T338 772T327 713Q327 710 327 704T329 692T331 680T332 674Q331 672 316 666T278 653T228 638T177 623T134 611T108 604Q97 604 95 615T92 638Q92 696 127 751T220 848T355 917T512 943Q605 943 672 913T777 833Q837 886 915 914T1090 943Q1124 943 1151 939T1200
927T1242 909T1282 886Q1305 874 1334 843T1390 771T1434 684T1452 594Q1452 580 1447 564T1428 547H838Q828 547 825 529T821 485Q821 397 846 329T915 213T1014 141T1132 116Q1171 116 1207 126T1276 154T1338 192T1393 234Q1399 236 1401 236Q1404 236 1409
231Q1418 223 1427 213T1441 195Q1444 192 1444 189Q1444 186 1440 182Q1407 143 1359 106T1257 39T1145 -9T1037 -27Q974 -27 920 -13T821 27T739 88T676 165Q637 129 593 94T502 32T409 -12T319 -29ZM1194 624Q1220 624 1220 647Q1220 686 1208 720T1172 781T1117
823T1044 838Q996 838 960 818T899 768T862 708T849 655Q849 638 854 631T867 624H1194ZM607 410Q605 413 600 413Q598 413 596 412L364 304Q350 294 339 286T319 266T307 239T303 199Q303 172 313 155T341 129T379 117T424 113Q445 113 476 123T536 151T587 191T608
237V373Q607 381 607 389T607 405V410Z" />
<glyph unicode="&#xe7;" glyph-name="ccedilla" horiz-adv-x="988" d="M90 403Q91 556 131 659T241 825T408 915T617 942Q639 942 669 941T732 935T796 922T853 898T894 860T910 805Q910 758 876 739T794 719Q752 719 723 738T670 781T621 824T562 844Q523 844
491 827T433 782T388 716T357 639T338 559T332 485Q332 412 347 346T395 228T482 147T612 117Q640 117 667 126T720 150T768 186T810 229Q820 241 829 249T859 257Q883 257 900 245T918 218Q918 214 917 208T906 189Q854 123 793 75T656 0L529 -150Q568 -165 594
-187T635 -231T657 -273T664 -305Q664 -367 631 -411T546 -483T429 -524T300 -537Q260 -537 233 -529T205 -489Q205 -481 214 -470T244 -450Q252 -447 267 -445T299 -439Q323 -435 351 -429T404 -411T444 -378T461 -324Q461 -302 443 -285T400 -256T348 -236T302
-227L466 -24Q380 -17 311 20T192 116T117 248T90 403Z" />
<glyph unicode="&#xe8;" glyph-name="egrave" horiz-adv-x="1014" d="M70 405Q70 522 103 620T198 791T349 903T553 943Q587 943 614 939T663 927T705 909T745 886Q768 874 797 843T853 771T897 684T915 594Q915 580 910 564T891 547H301Q291 547 288 529T284
485Q284 397 309 329T378 213T477 141T595 116Q634 116 670 126T739 154T801 192T856 234Q862 236 864 236Q867 236 872 231Q881 223 890 213T904 195Q907 192 907 189Q907 186 903 182Q870 143 822 106T720 39T608 -9T500 -27Q397 -27 317 10T182 109T99 247T70
405ZM657 624Q683 624 683 647Q683 686 671 720T635 781T580 823T507 838Q459 838 423 818T362 768T325 708T312 655Q312 638 317 631T330 624H657ZM597 1062Q592 1055 584 1050T569 1044Q558 1044 549 1051L280 1268Q257 1287 238 1314T218 1378Q218 1397 225
1414T244 1444T273 1464T310 1472Q333 1472 356 1459T401 1415L611 1124Q616 1117 617 1112T619 1099Q619 1096 618 1092T613 1083L597 1062Z" />
<glyph unicode="&#xe9;" glyph-name="eacute" horiz-adv-x="1014" d="M70 405Q70 522 103 620T198 791T349 903T553 943Q587 943 614 939T663 927T705 909T745 886Q768 874 797 843T853 771T897 684T915 594Q915 580 910 564T891 547H301Q291 547 288 529T284
485Q284 397 309 329T378 213T477 141T595 116Q634 116 670 126T739 154T801 192T856 234Q862 236 864 236Q867 236 872 231Q881 223 890 213T904 195Q907 192 907 189Q907 186 903 182Q870 143 822 106T720 39T608 -9T500 -27Q397 -27 317 10T182 109T99 247T70
405ZM657 624Q683 624 683 647Q683 686 671 720T635 781T580 823T507 838Q459 838 423 818T362 768T325 708T312 655Q312 638 317 631T330 624H657ZM396 1084Q393 1088 391 1092T388 1102Q388 1108 391 1112T396 1120L609 1415Q631 1445 654 1458T700 1472Q719
1472 736 1465T765 1444T785 1414T792 1378Q792 1341 772 1314T729 1268L459 1050Q453 1045 451 1045T441 1044Q432 1044 428 1046T418 1055L396 1084Z" />
<glyph unicode="&#xea;" glyph-name="ecircumflex" horiz-adv-x="1014" d="M70 405Q70 522 103 620T198 791T349 903T553 943Q587 943 614 939T663 927T705 909T745 886Q768 874 797 843T853 771T897 684T915 594Q915 580 910 564T891 547H301Q291 547 288 529T284
485Q284 397 309 329T378 213T477 141T595 116Q634 116 670 126T739 154T801 192T856 234Q862 236 864 236Q867 236 872 231Q881 223 890 213T904 195Q907 192 907 189Q907 186 903 182Q870 143 822 106T720 39T608 -9T500 -27Q397 -27 317 10T182 109T99 247T70
405ZM657 624Q683 624 683 647Q683 686 671 720T635 781T580 823T507 838Q459 838 423 818T362 768T325 708T312 655Q312 638 317 631T330 624H657ZM489 1283L269 1053Q264 1048 257 1046T245 1043Q240 1043 233 1049T218 1065T205 1082T200 1095Q200 1104 202
1109T211 1122L456 1452Q461 1460 470 1466T489 1473Q501 1473 512 1464T531 1443L779 1121Q790 1107 790 1095Q790 1091 785 1083T773 1065T758 1050T745 1043Q740 1043 734 1045T723 1053L489 1283Z" />
<glyph unicode="&#xeb;" glyph-name="edieresis" horiz-adv-x="1014" d="M70 405Q70 522 103 620T198 791T349 903T553 943Q587 943 614 939T663 927T705 909T745 886Q768 874 797 843T853 771T897 684T915 594Q915 580 910 564T891 547H301Q291 547 288 529T284
485Q284 397 309 329T378 213T477 141T595 116Q634 116 670 126T739 154T801 192T856 234Q862 236 864 236Q867 236 872 231Q881 223 890 213T904 195Q907 192 907 189Q907 186 903 182Q870 143 822 106T720 39T608 -9T500 -27Q397 -27 317 10T182 109T99 247T70
405ZM657 624Q683 624 683 647Q683 686 671 720T635 781T580 823T507 838Q459 838 423 818T362 768T325 708T312 655Q312 638 317 631T330 624H657ZM291 1092Q262 1092 237 1102T194 1131T165 1173T154 1227Q154 1256 164 1281T193 1325T237 1355T291 1366Q320
1366 345 1355T388 1326T417 1282T428 1227Q428 1198 418 1174T389 1131T345 1103T291 1092ZM730 1092Q701 1092 677 1102T633 1131T604 1173T593 1227Q593 1256 603 1281T633 1325T676 1355T730 1366Q760 1366 785 1355T828 1326T856 1282T867 1227Q867 1198 857
1174T828 1131T785 1103T730 1092Z" />
<glyph unicode="&#xec;" glyph-name="igrave" horiz-adv-x="652" d="M70 0Q64 2 62 13T60 31Q60 36 63 46T70 59Q83 65 107 68T155 82T197 115T215 182V663Q215 687 202 700T169 721T126 732T82 743Q76 745 73 748T69 763Q69 768 72 773T84 783L415 939Q419 941
423 943T430 945Q447 945 447 921V182Q447 138 465 116T507 83T555 69T592 59Q596 57 599 47T602 31Q602 25 600 14T592 0H70V0ZM380 1062Q375 1055 367 1050T352 1044Q341 1044 332 1051L63 1268Q40 1287 21 1314T1 1378Q1 1397 8 1414T27 1444T56 1464T93 1472Q116
1472 139 1459T184 1415L394 1124Q399 1117 400 1112T402 1099Q402 1096 401 1092T396 1083L380 1062Z" />
<glyph unicode="&#xed;" glyph-name="iacute" horiz-adv-x="652" d="M70 0Q64 2 62 13T60 31Q60 36 63 46T70 59Q83 65 107 68T155 82T197 115T215 182V663Q215 687 202 700T169 721T126 732T82 743Q76 745 73 748T69 763Q69 768 72 773T84 783L415 939Q419 941
423 943T430 945Q447 945 447 921V182Q447 138 465 116T507 83T555 69T592 59Q596 57 599 47T602 31Q602 25 600 14T592 0H70V0ZM393 1084Q390 1088 388 1092T385 1102Q385 1108 388 1112T393 1120L606 1415Q628 1445 651 1458T697 1472Q716 1472 733 1465T762
1444T782 1414T789 1378Q789 1341 769 1314T726 1268L456 1050Q450 1045 448 1045T438 1044Q429 1044 425 1046T415 1055L393 1084Z" />
<glyph unicode="&#xee;" glyph-name="icircumflex" horiz-adv-x="652" d="M70 0Q64 2 62 13T60 31Q60 36 63 46T70 59Q83 65 107 68T155 82T197 115T215 182V663Q215 687 202 700T169 721T126 732T82 743Q76 745 73 748T69 763Q69 768 72 773T84 783L415 939Q419
941 423 943T430 945Q447 945 447 921V182Q447 138 465 116T507 83T555 69T592 59Q596 57 599 47T602 31Q602 25 600 14T592 0H70V0ZM574 1283L354 1053Q349 1048 342 1046T330 1043Q325 1043 318 1049T303 1065T290 1082T285 1095Q285 1104 287 1109T296 1122L541
1452Q546 1460 555 1466T574 1473Q586 1473 597 1464T616 1443L864 1121Q875 1107 875 1095Q875 1091 870 1083T858 1065T843 1050T830 1043Q825 1043 819 1045T808 1053L574 1283Z" />
<glyph unicode="&#xef;" glyph-name="idieresis" horiz-adv-x="652" d="M70 0Q64 2 62 13T60 31Q60 36 63 46T70 59Q83 65 107 68T155 82T197 115T215 182V663Q215 687 202 700T169 721T126 732T82 743Q76 745 73 748T69 763Q69 768 72 773T84 783L415 939Q419
941 423 943T430 945Q447 945 447 921V182Q447 138 465 116T507 83T555 69T592 59Q596 57 599 47T602 31Q602 25 600 14T592 0H70V0ZM362 1092Q333 1092 308 1102T265 1131T236 1173T225 1227Q225 1256 235 1281T264 1325T308 1355T362 1366Q391 1366 416 1355T459
1326T488 1282T499 1227Q499 1198 489 1174T460 1131T416 1103T362 1092ZM801 1092Q772 1092 748 1102T704 1131T675 1173T664 1227Q664 1256 674 1281T704 1325T747 1355T801 1366Q831 1366 856 1355T899 1326T927 1282T938 1227Q938 1198 928 1174T899 1131T856
1103T801 1092Z" />
<glyph unicode="&#xf0;" glyph-name="eth" horiz-adv-x="1179" d="M530 1348Q494 1392 452 1439T369 1526T294 1590T242 1616V1645H432Q483 1611 540 1561T656 1446L892 1632L982 1512L752 1333Q819 1246 881 1145T990 934T1066 705T1094 463Q1094 360 1056 271T950
115T787 11T582 -27Q472 -27 379 12T219 118T113 275T75 467Q75 529 93 588T145 700T224 797T326 874T445 925T576 943Q616 943 673 932T791 895Q789 926 776 964T740 1046T687 1135T622 1230Q596 1209 567 1187T508 1141T452 1097T401 1058L311 1176L530 1348ZM326
528Q326 450 343 367T396 214T487 99T621 54Q678 54 719 85T787 167T825 284T838 423Q838 460 830 506T804 601T761 694T703 775T628 831T539 853Q485 853 445 823T379 746T339 641T326 528Z" />
<glyph unicode="&#xf1;" glyph-name="ntilde" horiz-adv-x="1316" d="M407 970Q411 972 415 974T422 976Q439 976 439 952V796Q442 786 447 786Q452 786 455 786T463 790Q527 823 571 845T648 883T706 907T758 920T815 926T891 927Q940 927 976 906T1036 851T1076
772T1100 681T1111 589T1114 506Q1114 471 1113 441T1110 376T1107 295T1105 186Q1105 156 1116 136T1144 103T1183 84T1224 73T1260 67T1286 60Q1290 58 1293 47T1296 31Q1296 25 1294 14T1286 0H728Q722 2 720 13T718 31Q718 36 721 47T728 60Q741 66 762 69T806
85T847 121T872 194Q874 209 875 222T878 248T879 278T880 315Q880 360 879 411T878 525Q878 574 874 622T852 708T800 770T706 794Q685 794 669 792T629 780T567 753T465 704Q457 699 449 693T439 676V186Q439 141 457 118T499 84T547 70T584 60Q588 58 591 47T594
31Q594 25 592 14T584 0H62Q56 2 54 13T52 31Q52 36 55 47T62 60Q75 66 99 69T147 83T189 117T207 186V694Q207 718 194 731T161 752T118 763T74 774Q68 776 65 779T61 794Q61 799 64 804T76 814L407 970ZM924 1388Q929 1388 931 1383T935 1372T937 1358T938 1347Q938
1314 927 1274T895 1198T844 1139T776 1115Q735 1115 697 1131T623 1166T549 1202T473 1219Q459 1219 444 1210T415 1186T394 1149T385 1104Q385 1096 380 1094T369 1092H348Q340 1092 340 1108Q340 1154 351 1202T382 1289T431 1352T496 1377Q538 1377 578 1361T657
1325T736 1289T815 1272Q833 1272 847 1282T870 1307T884 1341T889 1374Q889 1380 894 1384T905 1388H924Z" />
<glyph unicode="&#xf2;" glyph-name="ograve" horiz-adv-x="1197" d="M75 467Q75 561 116 647T228 799T391 904T587 943Q695 943 792 906T962 805T1079 653T1122 463Q1122 359 1083 270T973 114T807 11T596 -27Q483 -27 388 11T223 116T114 273T75 467ZM331 530Q331
476 339 419T363 307T403 204T462 120T539 62T636 41Q695 41 737 71T807 151T848 261T861 383Q861 432 852 486T825 594T781 697T721 783T644 843T551 865Q495 865 454 835T385 756T345 648T331 530ZM619 1062Q614 1055 606 1050T591 1044Q580 1044 571 1051L302
1268Q279 1287 260 1314T240 1378Q240 1397 247 1414T266 1444T295 1464T332 1472Q355 1472 378 1459T423 1415L633 1124Q638 1117 639 1112T641 1099Q641 1096 640 1092T635 1083L619 1062Z" />
<glyph unicode="&#xf3;" glyph-name="oacute" horiz-adv-x="1197" d="M75 467Q75 561 116 647T228 799T391 904T587 943Q695 943 792 906T962 805T1079 653T1122 463Q1122 359 1083 270T973 114T807 11T596 -27Q483 -27 388 11T223 116T114 273T75 467ZM331 530Q331
476 339 419T363 307T403 204T462 120T539 62T636 41Q695 41 737 71T807 151T848 261T861 383Q861 432 852 486T825 594T781 697T721 783T644 843T551 865Q495 865 454 835T385 756T345 648T331 530ZM496 1084Q493 1088 491 1092T488 1102Q488 1108 491 1112T496
1120L709 1415Q731 1445 754 1458T800 1472Q819 1472 836 1465T865 1444T885 1414T892 1378Q892 1341 872 1314T829 1268L559 1050Q553 1045 551 1045T541 1044Q532 1044 528 1046T518 1055L496 1084Z" />
<glyph unicode="&#xf4;" glyph-name="ocircumflex" horiz-adv-x="1197" d="M75 467Q75 561 116 647T228 799T391 904T587 943Q695 943 792 906T962 805T1079 653T1122 463Q1122 359 1083 270T973 114T807 11T596 -27Q483 -27 388 11T223 116T114 273T75 467ZM331
530Q331 476 339 419T363 307T403 204T462 120T539 62T636 41Q695 41 737 71T807 151T848 261T861 383Q861 432 852 486T825 594T781 697T721 783T644 843T551 865Q495 865 454 835T385 756T345 648T331 530ZM639 1283L419 1053Q414 1048 407 1046T395 1043Q390
1043 383 1049T368 1065T355 1082T350 1095Q350 1104 352 1109T361 1122L606 1452Q611 1460 620 1466T639 1473Q651 1473 662 1464T681 1443L929 1121Q940 1107 940 1095Q940 1091 935 1083T923 1065T908 1050T895 1043Q890 1043 884 1045T873 1053L639 1283Z"
/>
<glyph unicode="&#xf5;" glyph-name="otilde" horiz-adv-x="1197" d="M75 467Q75 561 116 647T228 799T391 904T587 943Q695 943 792 906T962 805T1079 653T1122 463Q1122 359 1083 270T973 114T807 11T596 -27Q483 -27 388 11T223 116T114 273T75 467ZM331 530Q331
476 339 419T363 307T403 204T462 120T539 62T636 41Q695 41 737 71T807 151T848 261T861 383Q861 432 852 486T825 594T781 697T721 783T644 843T551 865Q495 865 454 835T385 756T345 648T331 530ZM888 1388Q893 1388 895 1383T899 1372T901 1358T902 1347Q902
1314 891 1274T859 1198T808 1139T740 1115Q699 1115 661 1131T587 1166T513 1202T437 1219Q423 1219 408 1210T379 1186T358 1149T349 1104Q349 1096 344 1094T333 1092H312Q304 1092 304 1108Q304 1154 315 1202T346 1289T395 1352T460 1377Q502 1377 542 1361T621
1325T700 1289T779 1272Q797 1272 811 1282T834 1307T848 1341T853 1374Q853 1380 858 1384T869 1388H888Z" />
<glyph unicode="&#xf6;" glyph-name="odieresis" horiz-adv-x="1197" d="M75 467Q75 561 116 647T228 799T391 904T587 943Q695 943 792 906T962 805T1079 653T1122 463Q1122 359 1083 270T973 114T807 11T596 -27Q483 -27 388 11T223 116T114 273T75 467ZM331
530Q331 476 339 419T363 307T403 204T462 120T539 62T636 41Q695 41 737 71T807 151T848 261T861 383Q861 432 852 486T825 594T781 697T721 783T644 843T551 865Q495 865 454 835T385 756T345 648T331 530ZM380 1092Q351 1092 326 1102T283 1131T254 1173T243
1227Q243 1256 253 1281T282 1325T326 1355T380 1366Q409 1366 434 1355T477 1326T506 1282T517 1227Q517 1198 507 1174T478 1131T434 1103T380 1092ZM819 1092Q790 1092 766 1102T722 1131T693 1173T682 1227Q682 1256 692 1281T722 1325T765 1355T819 1366Q849
1366 874 1355T917 1326T945 1282T956 1227Q956 1198 946 1174T917 1131T874 1103T819 1092Z" />
<glyph unicode="&#xf7;" glyph-name="divide" horiz-adv-x="1049" d="M68 720H980V533H68V720ZM373 1015Q373 1047 385 1075T417 1125T466 1158T526 1170Q559 1170 587 1158T635 1125T668 1076T680 1015Q680 982 668 954T636 904T587 871T526 858Q494 858 466
870T418 904T385 953T373 1015ZM373 230Q373 262 385 290T417 340T466 373T526 385Q559 385 587 373T635 340T668 291T680 230Q680 197 668 169T636 119T587 86T526 73Q494 73 466 85T418 119T385 168T373 230Z" />
<glyph unicode="&#xf8;" glyph-name="oslash" horiz-adv-x="1228" d="M60 -43L230 128Q166 199 131 286T95 467Q95 561 136 647T248 799T411 904T607 943Q697 943 771 923T909 860L1053 1004L1158 906L1020 768Q1077 701 1109 624T1142 463Q1142 359 1103 270T993
114T827 11T616 -27Q535 -27 467 -10T343 39L159 -146L60 -43ZM351 530Q351 472 359 413T386 300Q486 407 583 511T780 724Q735 786 683 825T571 865Q515 865 474 835T405 756T365 648T351 530ZM881 383Q881 431 873 482T848 581Q748 473 652 370T455 158Q496 105
546 73T656 41Q715 41 757 71T827 151T868 261T881 383Z" />
<glyph unicode="&#xf9;" glyph-name="ugrave" horiz-adv-x="1200" d="M164 730Q161 759 138 779T87 806Q80 808 72 808T56 810T45 815T40 828Q40 836 42 842T56 851L361 939Q367 941 373 942T386 943Q396 943 396 926V251Q396 217 411 190T452 143T509 114T575
104Q599 104 625 112T675 132T720 161T754 196V731Q751 760 728 780T677 807Q670 809 662 809T646 811T635 816T630 829Q630 837 632 843T646 852L951 939Q957 941 963 942T976 943Q986 943 986 934V244Q991 200 1011 181T1076 162L1134 166Q1138 166 1139 153T1140
133Q1140 131 1138 120T1125 104L821 -21Q819 -22 811 -24T802 -27Q795 -27 794 -19T792 -2V94Q789 98 782 98Q780 98 778 98T776 96L616 18Q594 10 575 3T538 -12T498 -23T452 -27Q410 -27 360 -19T266 8T193 56T164 126V730V730ZM717 1062Q712 1055 704 1050T689
1044Q678 1044 669 1051L400 1268Q377 1287 358 1314T338 1378Q338 1397 345 1414T364 1444T393 1464T430 1472Q453 1472 476 1459T521 1415L731 1124Q736 1117 737 1112T739 1099Q739 1096 738 1092T733 1083L717 1062Z" />
<glyph unicode="&#xfa;" glyph-name="uacute" horiz-adv-x="1200" d="M164 730Q161 759 138 779T87 806Q80 808 72 808T56 810T45 815T40 828Q40 836 42 842T56 851L361 939Q367 941 373 942T386 943Q396 943 396 926V251Q396 217 411 190T452 143T509 114T575
104Q599 104 625 112T675 132T720 161T754 196V731Q751 760 728 780T677 807Q670 809 662 809T646 811T635 816T630 829Q630 837 632 843T646 852L951 939Q957 941 963 942T976 943Q986 943 986 934V244Q991 200 1011 181T1076 162L1134 166Q1138 166 1139 153T1140
133Q1140 131 1138 120T1125 104L821 -21Q819 -22 811 -24T802 -27Q795 -27 794 -19T792 -2V94Q789 98 782 98Q780 98 778 98T776 96L616 18Q594 10 575 3T538 -12T498 -23T452 -27Q410 -27 360 -19T266 8T193 56T164 126V730V730ZM494 1084Q491 1088 489 1092T486
1102Q486 1108 489 1112T494 1120L707 1415Q729 1445 752 1458T798 1472Q817 1472 834 1465T863 1444T883 1414T890 1378Q890 1341 870 1314T827 1268L557 1050Q551 1045 549 1045T539 1044Q530 1044 526 1046T516 1055L494 1084Z" />
<glyph unicode="&#xfb;" glyph-name="ucircumflex" horiz-adv-x="1200" d="M164 730Q161 759 138 779T87 806Q80 808 72 808T56 810T45 815T40 828Q40 836 42 842T56 851L361 939Q367 941 373 942T386 943Q396 943 396 926V251Q396 217 411 190T452 143T509 114T575
104Q599 104 625 112T675 132T720 161T754 196V731Q751 760 728 780T677 807Q670 809 662 809T646 811T635 816T630 829Q630 837 632 843T646 852L951 939Q957 941 963 942T976 943Q986 943 986 934V244Q991 200 1011 181T1076 162L1134 166Q1138 166 1139 153T1140
133Q1140 131 1138 120T1125 104L821 -21Q819 -22 811 -24T802 -27Q795 -27 794 -19T792 -2V94Q789 98 782 98Q780 98 778 98T776 96L616 18Q594 10 575 3T538 -12T498 -23T452 -27Q410 -27 360 -19T266 8T193 56T164 126V730V730ZM594 1283L374 1053Q369 1048
362 1046T350 1043Q345 1043 338 1049T323 1065T310 1082T305 1095Q305 1104 307 1109T316 1122L561 1452Q566 1460 575 1466T594 1473Q606 1473 617 1464T636 1443L884 1121Q895 1107 895 1095Q895 1091 890 1083T878 1065T863 1050T850 1043Q845 1043 839 1045T828
1053L594 1283Z" />
<glyph unicode="&#xfc;" glyph-name="udieresis" horiz-adv-x="1200" d="M164 730Q161 759 138 779T87 806Q80 808 72 808T56 810T45 815T40 828Q40 836 42 842T56 851L361 939Q367 941 373 942T386 943Q396 943 396 926V251Q396 217 411 190T452 143T509 114T575
104Q599 104 625 112T675 132T720 161T754 196V731Q751 760 728 780T677 807Q670 809 662 809T646 811T635 816T630 829Q630 837 632 843T646 852L951 939Q957 941 963 942T976 943Q986 943 986 934V244Q991 200 1011 181T1076 162L1134 166Q1138 166 1139 153T1140
133Q1140 131 1138 120T1125 104L821 -21Q819 -22 811 -24T802 -27Q795 -27 794 -19T792 -2V94Q789 98 782 98Q780 98 778 98T776 96L616 18Q594 10 575 3T538 -12T498 -23T452 -27Q410 -27 360 -19T266 8T193 56T164 126V730V730ZM358 1092Q329 1092 304 1102T261
1131T232 1173T221 1227Q221 1256 231 1281T260 1325T304 1355T358 1366Q387 1366 412 1355T455 1326T484 1282T495 1227Q495 1198 485 1174T456 1131T412 1103T358 1092ZM797 1092Q768 1092 744 1102T700 1131T671 1173T660 1227Q660 1256 670 1281T700 1325T743
1355T797 1366Q827 1366 852 1355T895 1326T923 1282T934 1227Q934 1198 924 1174T895 1131T852 1103T797 1092Z" />
<glyph unicode="&#xfd;" glyph-name="yacute" horiz-adv-x="1165" d="M331 -620Q313 -620 296 -614T265 -597T243 -572T234 -539Q234 -511 248 -496T284 -471T328 -454T367 -435Q378 -427 390 -417T413 -383L544 -78L161 721Q144 767 112 801T34 851Q27 853 17
855T-2 862T-18 872T-25 890Q-25 900 -19 910T-1 920H527Q533 920 534 908T535 893Q535 879 524 874T495 866T459 863T422 856T394 837T382 798Q382 795 386 786T391 774L639 243Q641 238 646 229T659 219Q663 219 667 223T674 234T679 245T682 253Q728 371 759
453T811 589T842 673T857 720T863 744T864 759Q866 794 843 817T788 851Q779 854 766 855T740 860T718 871T708 893Q708 901 715 910T730 920H1129Q1137 920 1138 909T1140 892Q1140 885 1138 880T1129 871T1108 863T1072 855Q1051 851 1034 835T1004 797T980 751T961
708L454 -548Q446 -567 431 -580T398 -603T362 -616T331 -620ZM539 1084Q536 1088 534 1092T531 1102Q531 1108 534 1112T539 1120L752 1415Q774 1445 797 1458T843 1472Q862 1472 879 1465T908 1444T928 1414T935 1378Q935 1341 915 1314T872 1268L602 1050Q596
1045 594 1045T584 1044Q575 1044 571 1046T561 1055L539 1084Z" />
<glyph unicode="&#xfe;" glyph-name="thorn" horiz-adv-x="1166" d="M367 1639Q371 1641 375 1643T382 1645Q399 1645 399 1621V848Q399 843 403 840T411 837Q422 837 429 844Q469 869 504 885T572 910T639 922T712 926Q790 926 853 886T962 780T1031 632T1056
467Q1056 380 1034 313T974 194T884 100T771 24Q729 1 681 -13T583 -27Q561 -27 542 -26T505 -21T466 -14T420 -4Q403 -4 402 -16T399 -41V-448Q399 -477 411 -496T443 -528T486 -547T532 -558T572 -564T599 -571Q609 -575 609 -584Q609 -598 599 -600H22Q12 -598
12 -584Q12 -575 22 -571Q35 -565 59 -562T107 -548T149 -515T167 -448V1363Q167 1387 154 1400T121 1421T78 1432T34 1443Q28 1445 25 1448T21 1463Q21 1468 24 1473T36 1483L367 1639ZM575 822Q548 822 529 819T491 807T455 787T414 758Q412 757 410 755T405
750L399 744V201Q399 198 400 185T403 160Q406 139 429 122T482 92T542 73T590 66Q656 66 701 90T774 154T814 249T826 364Q826 411 821 463T805 566T775 663T728 745T662 801T575 822Z" />
<glyph unicode="&#xff;" glyph-name="ydieresis" horiz-adv-x="1165" d="M331 -620Q313 -620 296 -614T265 -597T243 -572T234 -539Q234 -511 248 -496T284 -471T328 -454T367 -435Q378 -427 390 -417T413 -383L544 -78L161 721Q144 767 112 801T34 851Q27 853
17 855T-2 862T-18 872T-25 890Q-25 900 -19 910T-1 920H527Q533 920 534 908T535 893Q535 879 524 874T495 866T459 863T422 856T394 837T382 798Q382 795 386 786T391 774L639 243Q641 238 646 229T659 219Q663 219 667 223T674 234T679 245T682 253Q728 371
759 453T811 589T842 673T857 720T863 744T864 759Q866 794 843 817T788 851Q779 854 766 855T740 860T718 871T708 893Q708 901 715 910T730 920H1129Q1137 920 1138 909T1140 892Q1140 885 1138 880T1129 871T1108 863T1072 855Q1051 851 1034 835T1004 797T980
751T961 708L454 -548Q446 -567 431 -580T398 -603T362 -616T331 -620ZM353 1092Q324 1092 299 1102T256 1131T227 1173T216 1227Q216 1256 226 1281T255 1325T299 1355T353 1366Q382 1366 407 1355T450 1326T479 1282T490 1227Q490 1198 480 1174T451 1131T407
1103T353 1092ZM792 1092Q763 1092 739 1102T695 1131T666 1173T655 1227Q655 1256 665 1281T695 1325T738 1355T792 1366Q822 1366 847 1355T890 1326T918 1282T929 1227Q929 1198 919 1174T890 1131T847 1103T792 1092Z" />
<glyph unicode="&#x2013;" glyph-name="endash" horiz-adv-x="1135" d="M43 618H1092V393H43V618Z" />
<glyph unicode="&#x2014;" glyph-name="emdash" horiz-adv-x="1769" d="M28 618H1741V393H28V618Z" />
<glyph unicode="&#x2018;" glyph-name="quoteleft" horiz-adv-x="533" d="M315 1410Q335 1410 340 1397T345 1373Q344 1360 337 1349T318 1329T296 1312T275 1295Q261 1281 246 1264T219 1228T199 1189T191 1149Q191 1141 193 1132T213 1123Q245 1123 278 1113T340
1083T385 1034T403 965Q403 927 391 898T357 848T306 818T240 807Q178 807 140 830T80 887T52 957T45 1021Q45 1075 61 1127T106 1225T170 1309T244 1377Q259 1388 278 1399T315 1410Z" />
<glyph unicode="&#x2019;" glyph-name="quoteright" horiz-adv-x="533" d="M218 807Q198 807 193 820T188 844Q189 857 196 868T215 888T237 905T258 922Q272 936 287 953T314 989T334 1028T342 1068Q342 1076 340 1085T320 1094Q288 1094 255 1104T193 1134T148
1183T130 1252Q130 1290 142 1319T176 1369T227 1399T293 1410Q355 1410 393 1387T453 1330T481 1260T488 1196Q488 1142 471 1090T427 992T363 907T289 840Q274 829 255 818T218 807Z" />
<glyph unicode="&#x201a;" glyph-name="quotesinglbase" horiz-adv-x="533" d="M133 -302Q113 -302 108 -289T103 -265Q104 -252 111 -241T130 -221T152 -204T173 -187Q187 -173 202 -156T229 -120T249 -81T257 -41Q257 -33 255 -24T235 -15Q203 -15 170 -5T108
25T63 74T45 143Q45 181 57 210T91 260T142 290T208 301Q270 301 308 278T368 221T396 151T403 87Q403 33 386 -19T342 -117T278 -202T204 -269Q189 -280 170 -291T133 -302Z" />
<glyph unicode="&#x201c;" glyph-name="quotedblleft" horiz-adv-x="972" d="M754 1410Q774 1410 779 1397T784 1373Q783 1360 776 1349T757 1329T735 1312T714 1295Q700 1281 685 1264T658 1228T638 1189T630 1149Q630 1141 632 1132T652 1123Q684 1123 717 1113T779
1083T824 1034T842 965Q842 927 830 898T796 848T745 818T679 807Q617 807 579 830T519 887T491 957T484 1021Q484 1075 500 1127T545 1225T609 1309T683 1377Q698 1388 717 1399T754 1410ZM315 1410Q335 1410 340 1397T345 1373Q344 1360 337 1349T318 1329T296
1312T275 1295Q261 1281 246 1264T219 1228T199 1189T191 1149Q191 1141 193 1132T213 1123Q245 1123 278 1113T340 1083T385 1034T403 965Q403 927 391 898T357 848T306 818T240 807Q178 807 140 830T80 887T52 957T45 1021Q45 1075 61 1127T106 1225T170 1309T244
1377Q259 1388 278 1399T315 1410Z" />
<glyph unicode="&#x201d;" glyph-name="quotedblright" horiz-adv-x="971" d="M656 807Q636 807 631 820T626 844Q627 857 634 868T653 888T675 905T696 922Q710 936 725 953T752 989T772 1028T780 1068Q780 1076 778 1085T758 1094Q726 1094 693 1104T631 1134T586
1183T568 1252Q568 1290 580 1319T614 1369T665 1399T731 1410Q793 1410 831 1387T891 1330T919 1260T926 1196Q926 1142 909 1090T865 992T801 907T727 840Q712 829 693 818T656 807ZM218 807Q198 807 193 820T188 844Q189 857 196 868T215 888T237 905T258 922Q272
936 287 953T314 989T334 1028T342 1068Q342 1076 340 1085T320 1094Q288 1094 255 1104T193 1134T148 1183T130 1252Q130 1290 142 1319T176 1369T227 1399T293 1410Q355 1410 393 1387T453 1330T481 1260T488 1196Q488 1142 471 1090T427 992T363 907T289 840Q274
829 255 818T218 807Z" />
<glyph unicode="&#x201e;" glyph-name="quotedblbase" horiz-adv-x="971" d="M571 -302Q551 -302 546 -289T541 -265Q542 -252 549 -241T568 -221T590 -204T611 -187Q625 -173 640 -156T667 -120T687 -81T695 -41Q695 -33 693 -24T673 -15Q641 -15 608 -5T546
25T501 74T483 143Q483 181 495 210T529 260T580 290T646 301Q708 301 746 278T806 221T834 151T841 87Q841 33 824 -19T780 -117T716 -202T642 -269Q627 -280 608 -291T571 -302ZM133 -302Q113 -302 108 -289T103 -265Q104 -252 111 -241T130 -221T152 -204T173
-187Q187 -173 202 -156T229 -120T249 -81T257 -41Q257 -33 255 -24T235 -15Q203 -15 170 -5T108 25T63 74T45 143Q45 181 57 210T91 260T142 290T208 301Q270 301 308 278T368 221T396 151T403 87Q403 33 386 -19T342 -117T278 -202T204 -269Q189 -280 170 -291T133
-302Z" />
<glyph unicode="&#x2022;" glyph-name="bullet" horiz-adv-x="912" d="M110 780Q110 851 138 914T213 1024T323 1098T456 1126Q526 1126 589 1099T699 1024T774 914T802 780Q802 706 774 643T699 533T589 460T456 434Q386 434 323 460T213 532T138 642T110 780Z" />
<glyph unicode="&#x2039;" glyph-name="guilsinglleft" horiz-adv-x="510" d="M448 927L260 552L450 179H350L68 552L350 927H448Z" />
<glyph unicode="&#x203a;" glyph-name="guilsinglright" horiz-adv-x="510" d="M160 927L442 552L160 179H60L250 552L62 927H160Z" />
</font>
</defs>
</svg>
